<?xml version="1.0" standalone="no"?>
<!DOCTYPE svg PUBLIC "-//W3C//DTD SVG 1.1//EN" "http://www.w3.org/Graphics/SVG/1.1/DTD/svg11.dtd" >
<svg>
<metadata>
Created by FontForge 20090914 at Sat May 21 10:25:33 2016
 By www-data
Created by Raph Levien using his own tools and FontForge. Copyright 2006 Raph Levien. Released under the Apache 2 license.
</metadata>
<defs>
<font id="Inconsolata-Bold" horiz-adv-x="1024" >
  <font-face 
    font-family="Inconsolata"
    font-weight="700"
    font-stretch="normal"
    units-per-em="2048"
    panose-1="2 11 6 9 3 0 3 0 0 0"
    ascent="1638"
    descent="-410"
    x-height="936"
    cap-height="1276"
    bbox="-24.9971 -389.004 1059 1759"
    underline-thickness="102"
    underline-position="-308"
    unicode-range="U+0020-U+F40A"
  />
<missing-glyph 
 />
    <glyph glyph-name=".notdef" 
 />
    <glyph glyph-name="space" unicode=" " 
 />
    <glyph glyph-name="exclam" unicode="!" 
d="M489 276c23.333 0 44.832 -4.33105 64.499 -12.998s36.834 -20 51.501 -34s26 -29.833 34 -47.5s12 -35.834 12 -54.501c0 -20 -4.33301 -38.833 -13 -56.5s-20.5 -33.334 -35.5 -47.001s-32.333 -24.334 -52 -32.001s-40.167 -11.5 -61.5 -11.5
s-41.5 3.83301 -60.5 11.5s-35.667 18.167 -50 31.5s-25.666 28.833 -33.999 46.5s-12.5 36.834 -12.5 57.501c0 20 4.16699 39 12.5 57s19.666 33.833 33.999 47.5s31 24.5 50 32.5s39.167 12 60.5 12zM493.999 1374c44 0 78.834 -15.334 104.501 -46.001
s38.5 -80.667 38.5 -150c0 -13.333 -0.666992 -29 -2 -47s-2.83301 -37 -4.5 -57s-3.5 -39.667 -5.5 -59s-3.33301 -36.666 -4 -51.999l-37 -557h-185l-28 557c-1.33301 16 -3 34.5 -5 55.5s-4.33301 42.333 -7 64s-4.83398 42.667 -6.50098 63s-2.5 37.833 -2.5 52.5
c0 56.667 12.5 100.167 37.5 130.5s60.5 45.5 106.5 45.5z" />
    <glyph glyph-name="quotedbl" unicode="&#x22;" 
d="M596 1245c0 24.667 3.50098 46.168 10.501 64.501s16.5 33.5 28.5 45.5s25.667 21 41 27s31.666 9 48.999 9c16.667 0 33 -3 49 -9s30 -15.5 42 -28.5s21.667 -29.333 29 -49s11 -42.834 11 -69.501c0 -19.333 -6 -50.666 -18 -93.999s-28.667 -95.333 -50 -156
l-12.5 -36l-15 -43c-5 -14.667 -10.167 -29 -15.5 -43l-14 -36l-192 45l53 166c5.33301 16.667 9.33301 32.167 12 46.5s4 28.166 4 41.499zM240.001 1245c0 24.667 3.49902 46.1709 10.499 64.5039s16.333 33.5 28 45.5s25.334 21 41.001 27s32.167 9 49.5 9
c16.667 0 32.834 -3 48.501 -9s29.667 -15.5 42 -28.5s22.166 -29.333 29.499 -49s11 -42.834 11 -69.501c0 -22.667 -5.66699 -54.834 -17 -96.501s-27.666 -92.834 -48.999 -153.501l-57 -158l-195 45l54 166c5.33301 16.667 9.66602 32.167 12.999 46.5
s5 28.166 5 41.499z" />
    <glyph glyph-name="numbersign" unicode="#" 
d="M326 1282l211 2l-39 -321h110l37 315l211 2l-37 -313h172l-20 -164h-172l-31 -277h182l-12 -159h-188l-41 -340l-211 -13l43 346h-115l-41 -335l-205 -2l37 335h-178l12 160h189l30 279h-202l10 161h211zM475 799l-31 -277h113l33 277h-115z" />
    <glyph glyph-name="dollar" unicode="$" 
d="M436 1333l205 -0.0078125c5.33301 -2 8.66602 -4.83301 9.99902 -8.5s2 -7.5 2 -11.5c0 -2 -0.666992 -5.83301 -2 -11.5s-2.66602 -11.667 -3.99902 -18l-4 -19c-1.33301 -6.33301 -2 -11.5 -2 -15.5v-32c56.667 -11.333 109.167 -33.166 157.5 -65.499
s92.166 -72.166 131.499 -119.499l-121 -153c-10 0 -17.5 2.33301 -22.5 7s-9.16699 10.334 -12.5 17.001s-6.16602 13.834 -8.49902 21.501s-5.5 14.834 -9.5 21.501c-13.333 15.333 -31.166 30.333 -53.499 45s-46.166 25 -71.499 31v-301
c54 -17.333 101.667 -36.666 143 -57.999s75.833 -46 103.5 -74s48.5 -59.5 62.5 -94.5s21 -74.833 21 -119.5c0 -42 -7.33301 -82.167 -22 -120.5s-35.834 -73.166 -63.501 -104.499s-61.167 -58.333 -100.5 -81s-84 -39 -134 -49v-110h-205v104
c-62.667 10.667 -123 31.667 -181 63s-109.667 72 -155 122l125 176c11.333 -3.33301 20.166 -8.33301 26.499 -15s11.166 -13.667 14.499 -21s6.16602 -14.333 8.49902 -21s5.16602 -11.667 8.49902 -15c22.667 -24.667 46.834 -45.667 72.501 -63
s55.834 -29.666 90.501 -36.999v366c-48.667 18 -92.167 38 -130.5 60s-70.666 46.5 -96.999 73.5s-46.5 57 -60.5 90s-21 69.167 -21 108.5c0 37.333 7 73 21 107s34 64.667 60 92s57.5 50.833 94.5 70.5s78.167 34.167 123.5 43.5v119zM631 214.992
c36 12.667 65.167 30.667 87.5 54s33.5 54.333 33.5 93c0 32 -9.83301 60 -29.5 84s-50.167 43.333 -91.5 58v-289zM446 1023.99c-28 -7.33301 -50.667 -20.333 -68 -39s-26 -42.667 -26 -72c0 -21.333 7 -43.333 21 -66s38.333 -40 73 -52v229z" />
    <glyph glyph-name="percent" unicode="%" 
d="M770 1276h209l-731 -1276h-203zM27 1020c0 38.667 6.83301 75.001 20.5 109.001s32 63.5 55 88.5s49.833 44.667 80.5 59s63.334 21.5 98.001 21.5s67.5 -7.33301 98.5 -22s58 -34.5 81 -59.5s41.167 -54.667 54.5 -89s20 -70.833 20 -109.5
c0 -41.333 -6.5 -79 -19.5 -113s-30.833 -63.333 -53.5 -88s-49.5 -43.834 -80.5 -57.501s-64.5 -20.5 -100.5 -20.5c-34.667 0 -67.334 7 -98.001 21s-57.5 33.5 -80.5 58.5s-41.333 54.667 -55 89s-20.5 71.833 -20.5 112.5zM197 1018c0 -18 2 -34.833 6 -50.5
s9.5 -29.334 16.5 -41.001s15.333 -20.834 25 -27.501s20.167 -10 31.5 -10s22 3.33301 32 10s18.5 15.834 25.5 27.501s12.5 25.334 16.5 41.001s6 32.5 6 50.5s-2 35 -6 51s-9.5 29.833 -16.5 41.5s-15.5 21 -25.5 28s-20.667 10.5 -32 10.5s-21.833 -3.5 -31.5 -10.5
s-18 -16.333 -25 -28s-12.5 -25.5 -16.5 -41.5s-6 -33 -6 -51zM494 260.001c0 38.667 6.83301 75 20.5 109s32 63.667 55 89s49.833 45.166 80.5 59.499s63.334 21.5 98.001 21.5s67.334 -7.33301 98.001 -22s57.5 -34.667 80.5 -60s41.167 -55.166 54.5 -89.499
s20 -70.833 20 -109.5c0 -41.333 -6.33301 -79 -19 -113s-30.334 -63.167 -53.001 -87.5s-49.5 -43.333 -80.5 -57s-64.5 -20.5 -100.5 -20.5c-34.667 0 -67.334 7 -98.001 21s-57.5 33.5 -80.5 58.5s-41.333 54.5 -55 88.5s-20.5 71.333 -20.5 112zM664 258.001
c0 -18 2 -34.833 6 -50.5s9.5 -29.334 16.5 -41.001s15.333 -20.834 25 -27.501s20.167 -10 31.5 -10s21.833 3.33301 31.5 10s18.167 15.834 25.5 27.501s13 25.334 17 41.001s6 32.5 6 50.5s-2 35 -6 51s-9.66699 29.833 -17 41.5s-15.833 21 -25.5 28
s-20.167 10.5 -31.5 10.5s-21.833 -3.5 -31.5 -10.5s-18 -16.333 -25 -28s-12.5 -25.5 -16.5 -41.5s-6 -33 -6 -51z" />
    <glyph glyph-name="ampersand" unicode="&#x26;" 
d="M797 532c0.666992 8 1 16.332 1 24.999s0.5 17 1.5 25s3 15.667 6 23s8.16699 14 15.5 20l185 -129l-76.5 -125.5l-69.5 -106.5l33 -44l36 -46.5l35.5 -46.5l32.5 -43l-172 -127l-100 158c-20.667 -20.667 -43.334 -40 -68.001 -58s-50.667 -33.667 -78 -47
s-55.666 -23.833 -84.999 -31.5s-58.666 -11.5 -87.999 -11.5c-56.667 0 -106.5 8.66699 -149.5 26s-79 41 -108 71s-50.833 65.667 -65.5 107s-22 86 -22 134c0 39.333 6.5 78.666 19.5 117.999s30.833 76.5 53.5 111.5s49.5 67.333 80.5 97s64.5 54.834 100.5 75.501
c-47.333 52 -83 104.167 -107 156.5s-36 101.166 -36 146.499c0 40 8 77.5 24 112.5s37.667 65.333 65 91s59.5 45.834 96.5 60.501s76.167 22 117.5 22c44.667 0 85.167 -8.16699 121.5 -24.5s67.5 -37.833 93.5 -64.5s46.167 -57.167 60.5 -91.5s21.5 -69.5 21.5 -105.5
c0 -32 -4.83301 -64.333 -14.5 -97s-23.334 -64.167 -41.001 -94.5s-39 -58.166 -64 -83.499s-52.833 -46.333 -83.5 -63l174 -250c12.667 16.667 23.5 34.667 32.5 54s16.167 38 21.5 56zM381 1008c0 -26 7 -55.333 21 -88s37 -69.667 69 -111
c16.667 10 31.167 22.333 43.5 37s22.5 30.5 30.5 47.5s14 34.5 18 52.5s6 35.667 6 53s-2 33.666 -6 48.999s-10 28.833 -18 40.5s-17.667 20.834 -29 27.501s-24.333 10 -39 10c-32 0 -56 -11.167 -72 -33.5s-24 -50.5 -24 -84.5zM406 562.999
c-22 -14 -40.8301 -30.166 -56.4971 -48.499s-28.167 -38 -37.5 -59s-16.166 -42.333 -20.499 -64s-6.5 -42.834 -6.5 -63.501c0 -22.667 3.66699 -44.834 11 -66.501s17.666 -41 30.999 -58s29.166 -30.667 47.499 -41s38.166 -15.5 59.499 -15.5
c38 0 72.167 11.333 102.5 34s56.166 50.334 77.499 83.001z" />
    <glyph glyph-name="quotesingle" unicode="'" 
d="M424 1245c0 24.667 3.5 46.1689 10.5 64.502s16.333 33.5 28 45.5s25.334 21 41.001 27s32.167 9 49.5 9c16.667 0 33 -3 49 -9s30 -15.5 42 -28.5s21.667 -29.333 29 -49s11 -42.834 11 -69.501c0 -46 -22 -129.333 -66 -250l-57 -158l-194 45l53 166
c5.33301 16.667 9.66602 32.167 12.999 46.5s5 28.166 5 41.499z" />
    <glyph glyph-name="parenleft" unicode="(" 
d="M885 1184c-13.333 -5.33301 -25.002 -7.99707 -35.002 -7.99707c-8 0 -15.333 1 -22 3s-13 3 -19 3h-6c-2 0 -4.66699 -0.666992 -8 -2c-53.333 -31.333 -101.166 -68.5 -143.499 -111.5s-78.166 -92 -107.499 -147s-51.833 -116 -67.5 -183s-23.5 -139.833 -23.5 -218.5
c0 -76.667 10 -150.834 30 -222.501s48.5 -138.834 85.5 -201.501s81.833 -120.167 134.5 -172.5s112 -97.833 178 -136.5l-90 -154c-85.333 43.333 -162 96.166 -230 158.499s-125.667 131.666 -173 207.999s-83.833 158.833 -109.5 247.5s-38.5 181 -38.5 277
c0 98.667 13 191.334 39 278.001s63 166 111 238s106 136 174 192s143.667 102.667 227 140z" />
    <glyph glyph-name="parenright" unicode=")" 
d="M199 1374c90.667 -38 172.002 -87.334 244.002 -148.001s133.333 -128.667 184 -204s89.5 -156.5 116.5 -243.5s40.5 -176.5 40.5 -268.5c0 -92.667 -14 -183.667 -42 -273s-67.833 -172.833 -119.5 -250.5s-114.334 -147.5 -188.001 -209.5s-156.5 -112 -248.5 -150
l-53 174c69.333 32 131.166 72.667 185.499 122s100.166 104.5 137.499 165.5s65.833 126.833 85.5 197.5s29.5 143.334 29.5 218.001c0 154.667 -36.667 291.167 -110 409.5s-178.666 212.5 -315.999 282.5z" />
    <glyph glyph-name="asterisk" unicode="*" 
d="M406 1075h241l-43 -315l285 129l76 -176l-320 -99l234 -280l-164 -127l-199 301l-205 -303l-161 129l239 278l-319 99l71 186l293 -137z" />
    <glyph glyph-name="plus" unicode="+" 
d="M424 1083h199v-329h327v-174h-327v-359h-199v359h-340v174h340v329z" />
    <glyph glyph-name="comma" unicode="," 
d="M662 61c0 -54 -19.998 -114.498 -59.998 -181.498s-100.667 -142.167 -182 -225.5l-115 104c18.667 18 36.167 36.5 52.5 55.5s30.5 37.5 42.5 55.5s21.333 34.833 28 50.5s10 28.834 10 39.501c0 7.33301 -3 14.166 -9 20.499s-13 13.166 -21 20.499
c-17.333 14.667 -33 30.167 -47 46.5s-21 36.166 -21 59.499c0 20 3.66699 38.667 11 56s17.666 32.5 30.999 45.5s29.5 23.333 48.5 31s40.167 11.5 63.5 11.5c21.333 0 42.166 -4.66699 62.499 -14s38.333 -22.333 54 -39s28.167 -36.5 37.5 -59.5s14 -48.5 14 -76.5z" />
    <glyph glyph-name="hyphen" unicode="-" 
d="M131 750h768v-187h-768v187z" />
    <glyph glyph-name="period" unicode="." 
d="M494 252c20 0 39.3359 -4.16211 58.0029 -12.4951s35 -19.333 49 -33s25.167 -28.834 33.5 -45.501s12.5 -33.334 12.5 -50.001c0 -18.667 -4 -36.334 -12 -53.001s-19 -31.334 -33 -44.001s-30.333 -22.667 -49 -30s-38.334 -11 -59.001 -11
c-21.333 0 -41.333 3.66699 -60 11s-34.834 17.166 -48.501 29.499s-24.334 26.833 -32.001 43.5s-11.5 34.667 -11.5 54s4 37.5 12 54.5s19 32 33 45s30.167 23.167 48.5 30.5s37.833 11 58.5 11z" />
    <glyph glyph-name="slash" unicode="/" 
d="M106 -10l635 1376l179 -92l-633 -1370z" />
    <glyph glyph-name="zero" unicode="0" 
d="M821 1122c42 -55.333 75.3359 -126.336 100.003 -213.003s37 -183.667 37 -291c0 -111.333 -12.333 -208.166 -37 -290.499s-57.5 -150.666 -98.5 -204.999s-88.5 -94.833 -142.5 -121.5s-110 -40 -168 -40c-60.667 0 -117.834 16.167 -171.501 48.5
s-100.5 77.833 -140.5 136.5s-71.667 129 -95 211s-35 172.667 -35 272s12 190.333 36 273s56.167 153.667 96.5 213s87.166 105.5 140.499 138.5s109.666 49.5 168.999 49.5c34 0 65.333 -3.83301 94 -11.5s55.5 -19.167 80.5 -34.5s48.333 -34.166 70 -56.499
s43.167 -48.5 64.5 -78.5zM672.003 976.997c-16.667 39.333 -38.667 70.333 -66 93s-58 34 -92 34c-30 0 -58.5 -10.833 -85.5 -32.5s-50.833 -52.167 -71.5 -91.5s-37.167 -86.5 -49.5 -141.5s-18.5 -116.167 -18.5 -183.5c0 -12 0.333008 -25.333 1 -40
s1.5 -29.5 2.5 -44.5l3 -43.5c1 -14 2.16699 -25.667 3.5 -35zM356.003 292.997c16.667 -39.333 38.667 -70.333 66 -93s58 -34 92 -34c30 0 58.5 10.833 85.5 32.5s50.833 52 71.5 91s37.167 86 49.5 141s18.5 116.167 18.5 183.5c0 12 -0.333008 25.5 -1 40.5
s-1.5 30 -2.5 45s-2.16699 29.333 -3.5 43s-2.33301 25.5 -3 35.5z" />
    <glyph glyph-name="one" unicode="1" 
d="M653 1276v-1276h-225v1016l-219 -66l-55 140l346 186h153z" />
    <glyph glyph-name="two" unicode="2" 
d="M111 1047c38.667 84 92.333 148.001 161 192.001s147.334 66 236.001 66c58 0 111.333 -10 160 -30s90.667 -47.167 126 -81.5s63 -74.166 83 -119.499s30 -93.333 30 -144c0 -52 -9.5 -100.333 -28.5 -145s-43.667 -86.834 -74 -126.501s-64.5 -77.834 -102.5 -114.501
l-114 -111.5c-38 -37.667 -74.167 -76.167 -108.5 -115.5s-63.166 -81.666 -86.499 -126.999h441c7.33301 0.666992 13.666 2.83398 18.999 6.50098l16 11.5c5.33301 4 11 7.5 17 10.5s13.667 4.5 23 4.5v-223h-792v127c18.667 46 41.167 90 67.5 132s54.166 82 83.499 120
s59.333 73.833 90 107.5l88 95.5c21.333 22.667 45.166 46.667 71.499 72s51 52.333 74 81s42.167 59 57.5 91s23 66 23 102c0 24.667 -4.16699 48.167 -12.5 70.5s-20 41.666 -35 57.999s-33.167 29.333 -54.5 39s-44.666 14.5 -69.999 14.5
c-32 0 -58.5 -4.16699 -79.5 -12.5s-38.167 -18.833 -51.5 -31.5s-23.833 -26.834 -31.5 -42.501s-14.167 -31 -19.5 -46l-14.5 -41c-4.33301 -12.333 -9.83301 -21.5 -16.5 -27.5z" />
    <glyph glyph-name="three" unicode="3" 
d="M877 950c0 -33.333 -5.33496 -64.3359 -16.002 -93.0029s-24.834 -54.5 -42.501 -77.5s-37.334 -42.833 -59.001 -59.5s-43.5 -30 -65.5 -40c26 -9.33301 51.667 -23.666 77 -42.999s48 -43 68 -71s36 -59.833 48 -95.5s18 -74.5 18 -116.5
c0 -58.667 -9.66699 -112.167 -29 -160.5s-47.666 -89.666 -84.999 -123.999s-83.5 -61 -138.5 -80s-118.167 -28.5 -189.5 -28.5c-70.667 0 -137 13.167 -199 39.5s-118 70.5 -168 132.5l162 197c6 -4 10.333 -8 13 -12s5 -8.83301 7 -14.5s4.16699 -12.334 6.5 -20.001
s5.83301 -16.834 10.5 -27.501c8 -14 18.333 -26.833 31 -38.5s27 -21.667 43 -30s33 -15 51 -20s35.667 -7.5 53 -7.5c28 0 54.167 4.66699 78.5 14s45.833 23.166 64.5 41.499s33.334 40.833 44.001 67.5s16 57.334 16 92.001c0 30.667 -6.16699 58 -18.5 82
s-29.5 44.333 -51.5 61s-48 29.334 -78 38.001s-62.667 13 -98 13c-3.33301 0 -7.16602 -0.166992 -11.499 -0.5s-10.5 -0.666016 -18.5 -0.999023s-18.667 -0.666016 -32 -0.999023s-30.333 -0.833008 -51 -1.5v185c61.333 0 113 4.66699 155 14
s75.833 22.666 101.5 39.999s44 38.5 55 63.5s16.5 53.167 16.5 84.5c0 21.333 -3.66699 41.5 -11 60.5s-18 35.5 -32 49.5s-31.167 25.167 -51.5 33.5s-43.5 12.5 -69.5 12.5c-32.667 0 -66.834 -9 -102.501 -27s-72.5 -50 -110.5 -96l-131 148
c45.333 60.667 97.5 104.5 156.5 131.5s123.5 40.5 193.5 40.5c56.667 0 108.834 -8.83301 156.501 -26.5s88.834 -42.167 123.501 -73.5s61.667 -68.666 81 -111.999s29 -91 29 -143z" />
    <glyph glyph-name="four" unicode="4" 
d="M641 1276h165v-770h170v-193h-170v-313h-231v315h-487v144zM583 881l-258 -381h258v381z" />
    <glyph glyph-name="five" unicode="5" 
d="M219 1276l685.998 0.000976562v-195h-485l-17 -247c24 7.33301 47.5 12.833 70.5 16.5s46.833 5.5 71.5 5.5c60.667 0 115.667 -10 165 -30s91.333 -49 126 -87s61.334 -84.5 80.001 -139.5s28 -117.5 28 -187.5c0 -66.667 -9.83301 -127.667 -29.5 -183
s-48 -102.833 -85 -142.5s-81.667 -70.5 -134 -92.5s-110.833 -33 -175.5 -33c-42.667 0 -83.667 4.33301 -123 13s-76.333 22.667 -111 42s-67 44.333 -97 75s-56.667 68 -80 112l182 137c6 -3.33301 10.5 -7.33301 13.5 -12s5.5 -10 7.5 -16s3.66699 -12 5 -18
s3 -12 5 -18c14 -30.667 36.833 -57 68.5 -79s72.167 -33 121.5 -33c28.667 0 55.5 5.16699 80.5 15.5s46.667 26 65 47s32.833 47.167 43.5 78.5s16 67.666 16 108.999c0 40 -4.83301 75.667 -14.5 107s-23.167 57.833 -40.5 79.5s-38 38 -62 49s-50.667 16.5 -80 16.5
c-41.333 0 -77.666 -10 -108.999 -30s-62 -51 -92 -93l-147 63z" />
    <glyph glyph-name="six" unicode="6" 
d="M580 1303c58.667 0 115 -13.0049 169 -39.0049s104.667 -63 152 -111l-153 -166c-7.33301 2 -12.833 5.16699 -16.5 9.5s-6.66699 9.33301 -9 15s-4.66602 12 -6.99902 19s-5.83301 14.5 -10.5 22.5c-13.333 15.333 -31.333 28 -54 38s-46.334 15 -71.001 15
s-50 -6 -76 -18s-50.5 -31.667 -73.5 -59s-43.167 -63.5 -60.5 -108.5s-29.333 -100.5 -36 -166.5c13.333 13.333 28.333 25.833 45 37.5s34.167 21.834 52.5 30.501s37.166 15.5 56.499 20.5s38.333 7.5 57 7.5c53.333 0 103.333 -10.667 150 -32s87.5 -51.333 122.5 -90
s62.5 -84.667 82.5 -138s30 -112 30 -176s-10.5 -123.667 -31.5 -179s-49.5 -103.166 -85.5 -143.499s-78.333 -72.166 -127 -95.499s-100.667 -35 -156 -35c-67.333 0 -127.333 15.5 -180 46.5s-97.167 74.333 -133.5 130s-64.166 121.834 -83.499 198.501
s-29 160.667 -29 252c0 110.667 11.5 210.334 34.5 299.001s55.5 163.667 97.5 225s92.167 108.5 150.5 141.5s122.833 49.5 193.5 49.5zM532 646.995c-36.667 0 -72.499 -11.168 -107.499 -33.501s-63.833 -52.166 -86.5 -89.499v-37c0 -40.667 4.83301 -80 14.5 -118
s23.167 -71.5 40.5 -100.5s38 -52.333 62 -70s50.667 -26.5 80 -26.5c22.667 0 44.167 5.33301 64.5 16s38.166 26.167 53.499 46.5s27.333 45.5 36 75.5s13 64.667 13 104c0 40 -5.16699 74.667 -15.5 104s-23.5 53.5 -39.5 72.5s-34.167 33.167 -54.5 42.5
s-40.5 14 -60.5 14z" />
    <glyph glyph-name="seven" unicode="7" 
d="M903 1159c-79.333 -181.333 -154.001 -369.333 -224.001 -564s-136 -393 -198 -595h-248l188 543c64.667 180.667 133.334 358 206.001 532h-492v201h768v-117z" />
    <glyph glyph-name="eight" unicode="8" 
d="M897 977c0 -28 -4.8291 -55.8369 -14.4961 -83.5039s-23 -54.167 -40 -79.5s-36.833 -49.166 -59.5 -71.499s-46.667 -41.833 -72 -58.5c33.333 -18.667 64 -40.5 92 -65.5s52.167 -52.5 72.5 -82.5s36.166 -61.667 47.499 -95s17 -67.666 17 -102.999
c0 -53.333 -11 -103 -33 -149s-52.333 -85.833 -91 -119.5s-84 -60.167 -136 -79.5s-108 -29 -168 -29c-60.667 0 -117 9.66699 -169 29s-97 45.666 -135 78.999s-67.833 72.5 -89.5 117.5s-32.5 93.5 -32.5 145.5c0 34 5.66699 67.333 17 100s27.5 64 48.5 94
s45.833 58 74.5 84s60.667 48.667 96 68c-25.333 16.667 -48.833 35.834 -70.5 57.501s-40.334 44.834 -56.001 69.501s-28 50.5 -37 77.5s-13.5 54.5 -13.5 82.5c0 46.667 10 91 30 133s47.167 78.5 81.5 109.5s74.5 55.667 120.5 74s95 27.5 147 27.5
c53.333 0 102.666 -8.83301 147.999 -26.5s84.666 -41.667 117.999 -72s59.5 -65.666 78.5 -105.999s28.5 -82.833 28.5 -127.5zM698.004 339.996c0 24.667 -5.00098 48.668 -15.001 72.001s-24 45.166 -42 65.499s-39.833 38.833 -65.5 55.5s-54.5 30.667 -86.5 42
c-23.333 -12 -44.666 -26.167 -63.999 -42.5s-36.333 -34.333 -51 -54s-26 -40.667 -34 -63s-12 -45.5 -12 -69.5s5 -46.833 15 -68.5s23.5 -40.5 40.5 -56.5s37 -28.833 60 -38.5s47.167 -14.5 72.5 -14.5c26.667 0 51.167 4.5 73.5 13.5s41.5 21.167 57.5 36.5
s28.5 33.5 37.5 54.5s13.5 43.5 13.5 67.5zM377.003 974.997c0 -21.333 4.5 -41.501 13.5 -60.501s21.167 -36.667 36.5 -53s33.166 -31.333 53.499 -45s41.833 -26.5 64.5 -38.5c34.667 23.333 63.5 52 86.5 86s34.5 69.667 34.5 107c0 18 -3.83301 35.333 -11.5 52
s-18.167 31.334 -31.5 44.001s-29 22.667 -47 30s-37.333 11 -58 11s-39.667 -3.5 -57 -10.5s-32.166 -16.667 -44.499 -29s-22 -26.5 -29 -42.5s-10.5 -33 -10.5 -51z" />
    <glyph glyph-name="nine" unicode="9" 
d="M436 -39c-58.667 0 -115 13.1689 -169 39.502s-104.667 63.833 -152 112.5l153 166c7.33301 -2 12.833 -5.16699 16.5 -9.5s6.66699 -9.33301 9 -15s4.66602 -12 6.99902 -19s5.83301 -14.5 10.5 -22.5c13.333 -15.333 31.333 -28 54 -38s46.334 -15 71.001 -15
s50 5.83301 76 17.5s50.333 31.167 73 58.5s42.667 63.333 60 108s29.666 100 36.999 166c-13.333 -13.333 -28.333 -25.833 -45 -37.5s-34.167 -21.834 -52.5 -30.501s-37.166 -15.5 -56.499 -20.5s-38.333 -7.5 -57 -7.5c-53.333 0 -103.333 10.667 -150 32
s-87.5 51.333 -122.5 90s-62.5 84.667 -82.5 138s-30 112 -30 176s10.5 123.667 31.5 179s49.5 103.166 85.5 143.499s78.167 72.166 126.5 95.499s100.166 35 155.499 35c67.333 0 127.333 -15.667 180 -47s97.334 -74.666 134.001 -129.999s64.5 -121.5 83.5 -198.5
s28.5 -160.833 28.5 -251.5c0 -111.333 -11.5 -211.166 -34.5 -299.499s-55.333 -163.333 -97 -225s-91.667 -108.834 -150 -141.501s-122.833 -49 -193.5 -49zM483 616.002c37.333 0 73.499 11.3311 108.499 33.998s63.833 52.334 86.5 89.001v37
c0 40.667 -4.83301 80.167 -14.5 118.5s-23.167 72 -40.5 101s-38 52.333 -62 70s-50.667 26.5 -80 26.5c-23.333 0 -45.166 -5.33301 -65.499 -16s-38 -26.167 -53 -46.5s-27 -45.666 -36 -75.999s-13.5 -64.833 -13.5 -103.5c0 -40.667 5.16699 -75.667 15.5 -105
s23.5 -53.5 39.5 -72.5s34.167 -33.167 54.5 -42.5s40.5 -14 60.5 -14z" />
    <glyph glyph-name="colon" unicode=":" 
d="M477 891c18.667 0 37.168 -3.33301 55.501 -10s34.833 -16.167 49.5 -28.5s26.5 -27 35.5 -44s13.5 -35.833 13.5 -56.5c0 -19.333 -4.16699 -37.333 -12.5 -54s-19.5 -31.5 -33.5 -44.5s-30.333 -23.167 -49 -30.5s-38.334 -11 -59.001 -11
c-20 0 -39.167 3.66699 -57.5 11s-34.333 17.5 -48 30.5s-24.667 27.833 -33 44.5s-12.5 34.667 -12.5 54c0 18.667 4.16699 36.5 12.5 53.5s19.333 31.833 33 44.5s29.667 22.667 48 30s37.5 11 57.5 11zM477.001 252c18.667 0 37.165 -3.49707 55.498 -10.4971
s34.833 -16.833 49.5 -29.5s26.5 -27.5 35.5 -44.5s13.5 -35.833 13.5 -56.5c0 -18.667 -4 -36.334 -12 -53.001s-19 -31.334 -33 -44.001s-30.333 -22.667 -49 -30s-38.667 -11 -60 -11s-41.166 3.66699 -59.499 11s-34.166 17.166 -47.499 29.499s-24 26.833 -32 43.5
s-12 34.667 -12 54s4.16699 37.5 12.5 54.5s19.333 32 33 45s29.667 23.167 48 30.5s37.5 11 57.5 11z" />
    <glyph glyph-name="semicolon" unicode=";" 
d="M647 61c0 -54 -19.998 -114.498 -59.998 -181.498s-100.333 -142.167 -181 -225.5l-117 104c19.333 18 37.333 36.5 54 55.5s31 37.5 43 55.5s21.333 34.833 28 50.5s10 28.834 10 39.501c0 7.33301 -3 14.166 -9 20.499s-13.333 13.166 -22 20.499
c-17.333 14.667 -32.833 30.167 -46.5 46.5s-20.5 36.166 -20.5 59.499c0 20 3.66699 38.667 11 56s17.666 32.5 30.999 45.5s29.166 23.333 47.499 31s38.833 11.5 61.5 11.5c22 0 43.167 -4.66699 63.5 -14s38.5 -22.333 54.5 -39s28.667 -36.5 38 -59.5
s14 -48.5 14 -76.5zM477.002 891.002c18.667 0 37.168 -3.33301 55.501 -10s34.833 -16.167 49.5 -28.5s26.5 -27 35.5 -44s13.5 -35.833 13.5 -56.5c0 -19.333 -4.16699 -37.333 -12.5 -54s-19.5 -31.5 -33.5 -44.5s-30.333 -23.167 -49 -30.5s-38.334 -11 -59.001 -11
c-20 0 -39.167 3.66699 -57.5 11s-34.333 17.5 -48 30.5s-24.667 27.833 -33 44.5s-12.5 34.667 -12.5 54c0 18.667 4.16699 36.5 12.5 53.5s19.333 31.833 33 44.5s29.667 22.667 48 30s37.5 11 57.5 11z" />
    <glyph glyph-name="less" unicode="&#x3c;" 
d="M954 989l-639 -327l646 -363v-219l-895 524v119l888 469v-203z" />
    <glyph glyph-name="equal" unicode="=" 
d="M84 940h866v-174h-866v174zM84 522h866v-174h-866v174z" />
    <glyph glyph-name="greater" unicode="&#x3e;" 
d="M78 989v203l893 -469v-119l-895 -524v219l643 363z" />
    <glyph glyph-name="question" unicode="?" 
d="M539 248c18 0 35.832 -3.66699 53.499 -11s33.834 -17.333 48.501 -30s26.5 -27.667 35.5 -45s13.5 -36 13.5 -56c0 -18 -4 -35.333 -12 -52s-18.833 -31.334 -32.5 -44.001s-29.667 -22.667 -48 -30s-37.833 -11 -58.5 -11c-21.333 0 -41.333 3.66699 -60 11
s-35 17.333 -49 30s-25 27.334 -33 44.001s-12 34 -12 52c0 18.667 4 36.667 12 54s19 32.5 33 45.5s30.333 23.333 49 31s38.667 11.5 60 11.5zM112.999 1141c24 36 51.165 68.4951 81.498 97.4951s63.333 53.667 99 74s73.334 36 113.001 47s80.834 16.5 123.501 16.5
c58.667 0 111.667 -9.83301 159 -29.5s87.333 -46.5 120 -80.5s57.834 -73.333 75.501 -118s26.5 -92 26.5 -142c0 -38.667 -5.16699 -73.167 -15.5 -103.5s-24.666 -58.5 -42.999 -84.5s-40.333 -51 -66 -75s-53.834 -48.333 -84.501 -73
c-15.333 -12 -27.5 -24.667 -36.5 -38s-15.667 -27.166 -20 -41.499s-7.16602 -29.666 -8.49902 -45.999s-2 -33.833 -2 -52.5v-113h-203v113c0 28.667 1 54.667 3 78s7.5 46.833 16.5 70.5s22.833 48.334 41.5 74.001s44.667 55.167 78 88.5
c41.333 41.333 70.166 78.833 86.499 112.5s24.5 67.167 24.5 100.5c0 24.667 -4 47.834 -12 69.501s-19.167 40.5 -33.5 56.5s-31.333 28.667 -51 38s-40.834 14 -63.501 14c-25.333 0 -49.5 -4.83301 -72.5 -14.5s-45.167 -23.167 -66.5 -40.5
s-41.833 -38.166 -61.5 -62.499s-38.167 -51.5 -55.5 -81.5z" />
    <glyph glyph-name="at" unicode="@" 
d="M918 70c-48.667 -37.333 -98.5 -63.1689 -149.5 -77.502s-106.5 -21.5 -166.5 -21.5c-74.667 0 -145.334 14.333 -212.001 43s-125.167 71.334 -175.5 128.001s-90.166 127.334 -119.499 212.001s-44 183 -44 295c0 111.333 14.667 208.333 44 291
s67.833 151.334 115.5 206.001s101.667 95.5 162 122.5s121.833 40.5 184.5 40.5s119.334 -10.5 170.001 -31.5s94 -53.333 130 -97s63.667 -99 83 -166s29 -146.5 29 -238.5v-442h-187v63c-17.333 -21.333 -41.166 -39.666 -71.499 -54.999s-63.166 -23 -98.499 -23
c-39.333 0 -75.833 7.16699 -109.5 21.5s-63 34.166 -88 59.499s-44.667 55.166 -59 89.499s-21.5 71.833 -21.5 112.5c0 50.667 8.33301 96.167 25 136.5s42.667 74.5 78 102.5s80.333 49.5 135 64.5s120 23.167 196 24.5c-3.33301 32 -10.666 61.333 -21.999 88
s-26.5 49.5 -45.5 68.5s-41.167 33.833 -66.5 44.5s-53 16 -83 16c-38.667 0 -76.5 -10.167 -113.5 -30.5s-70.167 -51 -99.5 -92s-53 -92.5 -71 -154.5s-27 -135 -27 -219c0 -82 10.167 -155 30.5 -219s47.666 -117.833 81.999 -161.5s74.166 -76.834 119.499 -99.501
s92.666 -34 141.999 -34c33.333 0 69.166 5.83301 107.499 17.5s76.5 33.834 114.5 66.501zM776 775.997c-42.667 -0.666992 -79.501 -5.49902 -110.501 -14.499s-56.5 -20.833 -76.5 -35.5s-34.833 -31.5 -44.5 -50.5s-14.5 -38.833 -14.5 -59.5
c0 -40.667 9.83301 -73.334 29.5 -98.001s45.5 -37 77.5 -37c28 0 50.833 5.83301 68.5 17.5s31.834 29.667 42.501 54s18 55 22 92s6 80.833 6 131.5z" />
    <glyph glyph-name="A" unicode="A" 
d="M0 0l426 1298h133l467 -1298h-240l-116 330h-334l-100 -330h-236zM629 489l-133 424l-125 -424h258z" />
    <glyph glyph-name="B" unicode="B" 
d="M82 1276l387 0.000976562c77.333 0 144 -8 200 -24s102.333 -38.5 139 -67.5s63.667 -63.833 81 -104.5s26 -85.334 26 -134.001c0 -25.333 -3.5 -50.666 -10.5 -75.999s-17.333 -49.5 -31 -72.5s-30 -44.333 -49 -64s-40.5 -36.167 -64.5 -49.5
c30 -14 57.5 -32.333 82.5 -55s46.5 -47.667 64.5 -75s32.167 -56.333 42.5 -87s15.5 -61.334 15.5 -92.001c0 -56 -9.83301 -107.167 -29.5 -153.5s-50 -85.833 -91 -118.5s-92.833 -58 -155.5 -76s-136.667 -27 -222 -27h-385v1276zM311 1085v-307h140
c43.333 0 79.833 4 109.5 12s53.667 19 72 33s31.5 30.5 39.5 49.5s12 39.5 12 61.5c0 20 -4.33301 39.167 -13 57.5s-21.667 34.333 -39 48s-39.5 24.667 -66.5 33s-58.5 12.5 -94.5 12.5h-160zM311 592.001v-397.001h178c36 0 68.5 3 97.5 9s53.833 16.333 74.5 31
s36.5 33.834 47.5 57.501s16.5 53.167 16.5 88.5c0 30 -4.83301 57.833 -14.5 83.5s-25 48 -46 67s-48.667 33.833 -83 44.5s-75.833 16 -124.5 16h-146z" />
    <glyph glyph-name="C" unicode="C" 
d="M791 915c-6 2 -9.99902 5.00293 -11.999 9.00293s-3.16699 8.83301 -3.5 14.5s-0.833008 12.167 -1.5 19.5s-2.66699 15 -6 23c-19.333 44 -45.333 78.5 -78 103.5s-74.334 37.5 -125.001 37.5c-40.667 0 -77.5 -11.5 -110.5 -34.5s-61.167 -55.5 -84.5 -97.5
s-41.333 -92.667 -54 -152s-19 -125 -19 -197c0 -70 6.83301 -134.5 20.5 -193.5s32.834 -110.167 57.501 -153.5s54.334 -77.166 89.001 -101.499s72.667 -36.5 114 -36.5c49.333 0 92.666 15.167 129.999 45.5s71 71.833 101 124.5l174 -113
c-48 -82.667 -106.333 -145 -175 -187s-143.334 -63 -224.001 -63c-75.333 0 -145 13.5 -209 40.5s-119.5 68.167 -166.5 123.5s-83.667 124.833 -110 208.5s-39.5 182.167 -39.5 295.5c0 83.333 7.16699 158.166 21.5 224.499s34 124.5 59 174.5s54.167 92.667 87.5 128
s68.833 64.166 106.5 86.499s76.5 38.666 116.5 48.999s79 15.5 117 15.5c48 0 94 -7 138 -21s84.5 -33.833 121.5 -59.5s70 -56.334 99 -92.001s52.833 -75.167 71.5 -118.5z" />
    <glyph glyph-name="D" unicode="D" 
d="M90 1276l330.001 -0.000976562c56.667 0 106.667 -4 150 -12s81.666 -19.5 114.999 -34.5s62.833 -33.5 88.5 -55.5s49.167 -47.333 70.5 -76c43.333 -58.667 76 -127.167 98 -205.5s33 -166.166 33 -263.499c0 -96.667 -10.833 -183.834 -32.5 -261.501
s-56 -143.667 -103 -198s-107.167 -96.166 -180.5 -125.499s-161.333 -44 -264 -44h-305v1276zM313.001 1085l-0.000976562 -905h78c120.667 0 209.834 38.167 267.501 114.5s86.5 185.833 86.5 328.5c0 72 -6.16699 136.5 -18.5 193.5s-32 105.5 -59 145.5
s-61.5 70.5 -103.5 91.5s-92.667 31.5 -152 31.5h-99z" />
    <glyph glyph-name="E" unicode="E" 
d="M115 1276h831v-197h-608v-315h504v-201h-504v-366h604v-197h-827v1276z" />
    <glyph glyph-name="F" unicode="F" 
d="M139 1276h793v-195h-563v-299h454v-192h-454v-590h-230v1276z" />
    <glyph glyph-name="G" unicode="G" 
d="M813 913c-12 5.33301 -21.666 10.498 -28.999 15.498s-13 10.167 -17 15.5s-7.16699 10.666 -9.5 15.999l-7.5 17c-8 18.667 -18.833 36.167 -32.5 52.5s-29.167 30.833 -46.5 43.5s-36.333 22.667 -57 30s-42.334 11 -65.001 11c-34 0 -67.667 -8.16699 -101 -24.5
s-63.166 -42.833 -89.499 -79.5s-47.666 -84.167 -63.999 -142.5s-24.5 -129.833 -24.5 -214.5c0 -77.333 7 -146.666 21 -207.999s33.667 -113.166 59 -155.499s55.166 -74.833 89.499 -97.5s72.166 -34 113.499 -34c30.667 0 62 3.66699 94 11s61.333 21.333 88 42v240
h-217v194h434v-536c-61.333 -51.333 -124.5 -88.5 -189.5 -111.5s-134.833 -34.5 -209.5 -34.5c-83.333 0 -157.333 16.5 -222 49.5s-119 79.333 -163 139s-77.5 130.834 -100.5 213.501s-34.5 174 -34.5 274c0 89.333 8.5 168 25.5 236s39.5 126.833 67.5 176.5
s60.167 91 96.5 124s73.666 59.333 111.999 79s76.5 33.667 114.5 42s72.667 12.5 104 12.5c43.333 0 84.833 -6 124.5 -18s76.834 -29 111.501 -51s66 -48.333 94 -79s52.333 -64.667 73 -102z" />
    <glyph glyph-name="H" unicode="H" 
d="M936 0l-236 0.00195312v571h-376v-571h-236v1276h250c2.66699 -2.66699 4 -6 4 -10c0 -2.66699 -0.833008 -5.5 -2.5 -8.5s-3.5 -6.83301 -5.5 -11.5s-4 -10.334 -6 -17.001s-3.33301 -15 -4 -25v-442h376v514h250c2.66699 -2.66699 4 -6 4 -10
c0 -2.66699 -0.833008 -5.5 -2.5 -8.5s-3.5 -6.83301 -5.5 -11.5s-4 -10.334 -6 -17.001s-3.33301 -15 -4 -25v-1204z" />
    <glyph glyph-name="I" unicode="I" 
d="M162 1276h712v-191h-247v-897h258v-188h-735v190h247v895h-235v191z" />
    <glyph glyph-name="J" unicode="J" 
d="M291 1276l658.999 -0.00195312v-191h-192v-673c0 -78 -9.66699 -145.167 -29 -201.5s-45.666 -102.666 -78.999 -138.999s-72 -63.166 -116 -80.499s-91 -26 -141 -26c-68.667 0 -131.834 15 -189.501 45s-108.5 74.333 -152.5 133l146 176
c6.66699 -2 11.834 -5.5 15.501 -10.5s6.83398 -11 9.50098 -18l8.5 -23c3 -8.33301 6.83301 -16.833 11.5 -25.5c8 -10.667 16.167 -20.834 24.5 -30.501s17.833 -18.167 28.5 -25.5s23.167 -13.166 37.5 -17.499s31.166 -6.5 50.499 -6.5c50 0 86.667 21.5 110 64.5
s35 113.5 35 211.5v647h-237v191z" />
    <glyph glyph-name="K" unicode="K" 
d="M324 0l-236.001 0.000976562v1276h250c2.66699 -2.66699 4 -6 4 -10c0 -2.66699 -0.833008 -5.5 -2.5 -8.5s-3.5 -6.83301 -5.5 -11.5s-4 -10.334 -6 -17.001s-3.33301 -15 -4 -25v-416l434 504c22.667 -5.33301 44.334 -9.33301 65.001 -12s38.667 -4 54 -4h141
l-475 -543l493 -731l-278 -12l-379 592l-55 -60v-522z" />
    <glyph glyph-name="L" unicode="L" 
d="M940 193v-192.999h-815v1276h250c2.66699 -2.66699 4 -6 4 -10c0 -5.33301 -2.5 -11.833 -7.5 -19.5s-8.83301 -21.834 -11.5 -42.501v-1011h580z" />
    <glyph glyph-name="M" unicode="M" 
d="M61 1276h242l215 -600l213 602h244v-1278h-207v926l-178 -482h-152l-172 482v-926h-205v1276z" />
    <glyph glyph-name="N" unicode="N" 
d="M958 0l-253 0.000976562l-433 965v-965h-206v1276h280l406 -914v914h221c2.66699 -2.66699 4 -6 4 -10c0 -5.33301 -2.5 -11.833 -7.5 -19.5s-8.83301 -21.834 -11.5 -42.501v-1204z" />
    <glyph glyph-name="O" unicode="O" 
d="M514 -37c-75.333 0 -142.667 16.833 -202 50.5s-109.5 80.667 -150.5 141s-72.333 132 -94 215s-32.5 173.5 -32.5 271.5c0 98.667 11.167 189 33.5 271s54.333 152.333 96 211s92.167 104.334 151.5 137.001s126 49 200 49c64 0 124.667 -13.667 182 -41
s107.5 -68.666 150.5 -123.999s77.167 -125 102.5 -209s38 -182.667 38 -296c0 -82 -6.33301 -155.667 -19 -221s-30 -123 -52 -173s-48 -92.833 -78 -128.5s-62.667 -64.834 -98 -87.501s-72.333 -39.334 -111 -50.001s-77.667 -16 -117 -16zM271.999 653
c0 -78 6.00195 -146.995 18.002 -206.995s28.833 -110.333 50.5 -151s47.334 -71.334 77.001 -92.001s62.5 -31 98.5 -31c30.667 0 60.167 7.66699 88.5 23s53.166 41.333 74.499 78s38.5 85.167 51.5 145.5s19.5 135.166 19.5 224.499c0 85.333 -7 157.333 -21 216
s-32 106.167 -54 142.5s-46.833 62.5 -74.5 78.5s-55.167 24 -82.5 24c-32.667 0 -63.834 -7.33301 -93.501 -22s-55.834 -39.334 -78.501 -74.001s-40.667 -80.834 -54 -138.501s-20 -129.834 -20 -216.501z" />
    <glyph glyph-name="P" unicode="P" 
d="M102 1276h433c76 0 141 -10.167 195 -30.5s98.5 -48 133.5 -83s60.667 -75.667 77 -122s24.5 -95.5 24.5 -147.5s-8 -100.833 -24 -146.5s-41 -85.5 -75 -119.5s-77.5 -61 -130.5 -81s-116.5 -30 -190.5 -30h-209v-516h-234v1276zM336 1073l0.00195312 -362.001h192
c35.333 0 65.666 4.5 90.999 13.5s46.166 21.333 62.499 37s28.333 34.167 36 55.5s11.5 44.666 11.5 69.999c0 26.667 -4 51.334 -12 74.001s-20.167 42.334 -36.5 59.001s-37 29.667 -62 39s-54.5 14 -88.5 14h-194z" />
    <glyph glyph-name="Q" unicode="Q" 
d="M401 -23c-58 15.333 -109.83 42.4971 -155.497 81.4971s-84 87.5 -115 145.5s-54.667 124 -71 198s-24.5 153.667 -24.5 239c0 98.667 11.167 189 33.5 271s54.333 152.333 96 211s92.167 104.334 151.5 137.001s126 49 200 49c64 0 124.667 -13.667 182 -41
s107.5 -68.666 150.5 -123.999s77.167 -125 102.5 -209s38 -182.667 38 -296c0 -104.667 -10 -195.667 -30 -273s-46.833 -142.666 -80.5 -195.999s-72.834 -95.666 -117.501 -126.999s-91.334 -53.333 -140.001 -66c2 -23.333 10.167 -42.333 24.5 -57
s36.166 -21.334 65.499 -20.001l202 8l-6 -207h-164c-115.333 0 -200.333 21.5 -255 64.5s-83.667 113.5 -87 211.5zM272.003 652.997c0 -78 6.00195 -146.995 18.002 -206.995s28.833 -110.333 50.5 -151s47.334 -71.334 77.001 -92.001s62.5 -31 98.5 -31
c30.667 0 60.167 7.66699 88.5 23s53.166 41.333 74.499 78s38.5 85.167 51.5 145.5s19.5 135.166 19.5 224.499c0 85.333 -7 157.333 -21 216s-32 106.167 -54 142.5s-46.833 62.5 -74.5 78.5s-55.167 24 -82.5 24c-32.667 0 -63.834 -7.33301 -93.501 -22
s-55.834 -39.334 -78.501 -74.001s-40.667 -80.834 -54 -138.501s-20 -129.834 -20 -216.501z" />
    <glyph glyph-name="R" unicode="R" 
d="M96 1276l404.001 -0.000976562c79.333 0 147.166 -9.16699 203.499 -27.5s102.5 -44.166 138.5 -77.499s62.333 -73.333 79 -120s25 -98.667 25 -156c0 -34.667 -5.83301 -69.667 -17.5 -105s-28 -68.5 -49 -99.5s-46.667 -58.333 -77 -82s-63.833 -41.5 -100.5 -53.5
l299 -555h-258l-264 528h-149v-528h-234v1276zM330.001 1073v-349.999h184c34 0 63.5 4.16699 88.5 12.5s45.5 20 61.5 35s27.833 33.167 35.5 54.5s11.5 44.666 11.5 69.999c0 60 -15.667 104.667 -47 134s-81.333 44 -150 44h-184z" />
    <glyph glyph-name="S" unicode="S" 
d="M780 946c-10 0.666992 -17.166 2.66992 -21.499 6.00293s-7.66602 7.66602 -9.99902 12.999s-4.16602 11.166 -5.49902 17.499s-4 12.5 -8 18.5c-22.667 34 -54.334 62.333 -95.001 85s-88.667 34 -144 34c-24 0 -45.833 -3.83301 -65.5 -11.5s-36.334 -18 -50.001 -31
s-24.167 -28 -31.5 -45s-11 -34.833 -11 -53.5c0 -22 3.83301 -42.833 11.5 -62.5s21.667 -39 42 -58s48 -38.167 83 -57.5s79.5 -40 133.5 -62c64.667 -26 118.5 -53.167 161.5 -81.5s77.333 -58.333 103 -90s43.667 -65.334 54 -101.001s15.5 -73.834 15.5 -114.501
c0 -48 -8.16699 -95.333 -24.5 -142s-42.666 -88.167 -78.999 -124.5s-83.166 -65.833 -140.499 -88.5s-127 -34 -209 -34c-86.667 0 -165.667 16.5 -237 49.5s-136.333 80.833 -195 143.5l117 204c8 -2 14.167 -5 18.5 -9s8.16602 -8.66699 11.499 -14
s6.66602 -11.333 9.99902 -18s7.66602 -14 12.999 -22c14 -17.333 30.167 -34.333 48.5 -51s39.166 -31.334 62.499 -44.001s49 -22.834 77 -30.501s59 -11.5 93 -11.5c62.667 0 111.834 14.5 147.501 43.5s53.5 74.5 53.5 136.5c0 19.333 -4 37.833 -12 55.5
s-21.5 35 -40.5 52s-44.5 34.333 -76.5 52s-72.333 36.167 -121 55.5c-64 26 -118.667 53.333 -164 82s-82.5 59.334 -111.5 92.001s-50.167 67.334 -63.5 104.001s-20 75.667 -20 117c0 50 10.333 96.667 31 140s49.5 81.333 86.5 114s81 58.334 132 77.001
s107.167 28 168.5 28c77.333 0 150 -16.333 218 -49s125.667 -80 173 -142z" />
    <glyph glyph-name="T" unicode="T" 
d="M41 1276h940v-199h-360v-1077h-234v1077h-346v199z" />
    <glyph glyph-name="U" unicode="U" 
d="M76 1276l243 0.00292969c2.66699 -2 4.16699 -3.66699 4.5 -5s0.5 -3 0.5 -5c0 -2.66699 -0.833008 -5.5 -2.5 -8.5s-3.5 -6.83301 -5.5 -11.5s-4.16699 -10.334 -6.5 -17.001s-3.83301 -15 -4.5 -25v-755c0 -44 3.33301 -83.833 10 -119.5s18 -65.834 34 -90.501
s37.333 -43.667 64 -57s59.667 -20 99 -20c40.667 0 74.5 6.83301 101.5 20.5s48.667 33.167 65 58.5s27.833 56 34.5 92s10 76.667 10 122v821h225v-819c0 -83.333 -10.333 -155.5 -31 -216.5s-50 -111.5 -88 -151.5s-84 -69.667 -138 -89s-114.333 -29 -181 -29
c-71.333 0 -134 11 -188 33s-99.333 53.667 -136 95s-64.167 91.666 -82.5 150.999s-27.5 126.333 -27.5 201v825z" />
    <glyph glyph-name="V" unicode="V" 
d="M20 1276h242l268 -905l254 905h236l-410 -1276h-176z" />
    <glyph glyph-name="W" unicode="W" 
d="M12 1276h224l73 -842l150 737h147l150 -731l53 836h213l-152 -1276h-180l-168 776l-170 -776h-184z" />
    <glyph glyph-name="X" unicode="X" 
d="M733 1276h238l-318 -623l359 -653h-258l-234 438l-227 -438h-250l344 651l-340 625h250l221 -418z" />
    <glyph glyph-name="Y" unicode="Y" 
d="M18 1276h256l263 -516l233 516h248l-365 -774v-502h-241v504z" />
    <glyph glyph-name="Z" unicode="Z" 
d="M106 1276l838 0.00195312v-139l-567 -940h491c14.667 2 26.5 4.66699 35.5 8s17 6.66602 24 9.99902s14 6.16602 21 8.49902s15.833 3.5 26.5 3.5v-227h-891v139l578 938h-556v199z" />
    <glyph glyph-name="bracketleft" unicode="[" 
d="M242 1370h635v-190h-420v-1180h420v-184h-635v1554z" />
    <glyph glyph-name="backslash" unicode="\" 
d="M922 -10l-179 -86l-639 1376l179 94z" />
    <glyph glyph-name="bracketright" unicode="]" 
d="M780 1370v-1554h-633v184h418v1180h-415v190h630z" />
    <glyph glyph-name="asciicircum" unicode="^" 
d="M158 760l331 520h74l293 -520l-168 -80l-170 354l-192 -354z" />
    <glyph glyph-name="underscore" unicode="_" 
d="M59 -16h906v-191h-906v191z" />
    <glyph glyph-name="grave" unicode="`" 
d="M244 1333l179.997 83.999l65 -166c14.667 -34.667 30.5 -62.167 47.5 -82.5s34.833 -39.833 53.5 -58.5c20.667 -20.667 37.834 -40.167 51.501 -58.5s20.5 -41.166 20.5 -68.499c-0.666992 -19.333 -5 -35.833 -13 -49.5s-18 -24.667 -30 -33s-24.667 -14.333 -38 -18
s-26 -5.5 -38 -5.5c-16 0 -32.333 2 -49 6s-34.667 15.5 -54 34.5s-40.166 48.5 -62.499 88.5s-47.166 96 -74.499 168z" />
    <glyph glyph-name="a" unicode="a" 
d="M154 821c98.667 104 219.332 155.998 361.999 155.998c60.667 0 115 -7.66699 163 -23s88.667 -39.166 122 -71.499s59 -73.333 77 -123s27 -108.834 27 -177.501v-582h-219v86c-36 -34 -78.833 -61 -128.5 -81s-99.5 -30 -149.5 -30c-56 0 -104.5 7.5 -145.5 22.5
s-74.833 35.167 -101.5 60.5s-46.5 55 -59.5 89s-19.5 69.667 -19.5 107c0 49.333 10.5 94.5 31.5 135.5s51.833 76.333 92.5 106s90.834 52.834 150.501 69.501s128.5 25 206.5 25h121c-1.33301 72.667 -16 125.334 -44 158.001s-72 49 -132 49
c-78 0 -157.333 -42.333 -238 -127zM605.998 417.998c-60 1.33301 -109.334 -2.16797 -148.001 -10.501s-69 -19.833 -91 -34.5s-37.167 -31.5 -45.5 -50.5s-12.5 -37.833 -12.5 -56.5c0 -16 3.66699 -31 11 -45s17.333 -26.167 30 -36.5s27.5 -18.666 44.5 -24.999
s35.167 -9.5 54.5 -9.5c31.333 0 59.5 5.5 84.5 16.5s46.833 24.167 65.5 39.5s34.334 31.333 47.001 48s22 31 28 43c5.33301 10 9.33301 24.833 12 44.5s4 44.5 4 74.5z" />
    <glyph glyph-name="b" unicode="b" 
d="M102 1382l258.001 0.000976562c0 -8 -1.33301 -14.333 -4 -19s-5.5 -8.83398 -8.5 -12.501l-9.5 -11.5c-3.33301 -4 -5.33301 -9.33301 -6 -16v-449c30 33.333 64.333 58.833 103 76.5s78 26.5 118 26.5c54 0 105.333 -10 154 -30s91.5 -50 128.5 -90
s66.333 -89.833 88 -149.5s32.5 -129.5 32.5 -209.5c0 -88 -11.833 -165.167 -35.5 -231.5s-54.834 -121.5 -93.501 -165.5s-82.667 -77 -132 -99s-99.333 -33 -150 -33c-48 0 -94 10.5 -138 31.5s-82 51.5 -114 91.5l-31 -92h-160v1382zM330.001 489.001
c0 -59.333 4.33008 -109.835 12.9971 -151.502s21 -75.667 37 -102s35.5 -45.5 58.5 -57.5s48.833 -18 77.5 -18c22.667 0 46.334 5.33301 71.001 16s47.334 28 68.001 52s37.5 55.5 50.5 94.5s19.5 87.167 19.5 144.5c0 60.667 -6.5 112.834 -19.5 156.501
s-31.833 78.834 -56.5 105.501c-18.667 20.667 -38.5 36.167 -59.5 46.5s-47.5 15.5 -79.5 15.5c-37.333 0 -67.666 -8.16699 -90.999 -24.5s-41.5 -38.5 -54.5 -66.5s-22 -60.167 -27 -96.5s-7.5 -74.5 -7.5 -114.5z" />
    <glyph glyph-name="c" unicode="c" 
d="M799 621c-6 1.33301 -10.3311 3.83008 -12.998 7.49707s-4.66699 7.83398 -6 12.501s-2.5 9.83398 -3.5 15.501s-2.5 11.5 -4.5 17.5c-18.667 32 -45.5 58.667 -80.5 80s-77.833 32 -128.5 32c-34.667 0 -67.334 -7.5 -98.001 -22.5s-57.334 -36 -80.001 -63
s-40.667 -59.167 -54 -96.5s-20 -78.333 -20 -123c0 -45.333 6.16699 -87.166 18.5 -125.499s29.666 -71.833 51.999 -100.5s49 -51 80 -67s65.5 -24 103.5 -24c18.667 0 38.167 2.16699 58.5 6.5s40.833 11.5 61.5 21.5s41 23.167 61 39.5s39.667 36.166 59 59.499
l133 -154c-54 -60.667 -113.333 -104.167 -178 -130.5s-133 -39.5 -205 -39.5c-70 0 -134.167 12.667 -192.5 38s-108.5 60.333 -150.5 105s-74.833 97.667 -98.5 159s-35.5 128 -35.5 200c0 71.333 11.667 137.833 35 199.5s56.333 115.334 99 161.001
s93.834 81.667 153.501 108s125.5 39.5 197.5 39.5c40 0 78.667 -4 116 -12s72.5 -19.667 105.5 -35s63.167 -34.5 90.5 -57.5s51 -49.5 71 -79.5z" />
    <glyph glyph-name="d" unicode="d" 
d="M918 115c0 -16.667 1.66992 -34.833 5.00293 -54.5s7.66602 -39.834 12.999 -60.501h-217c-8.66699 6 -14.334 15 -17.001 27s-4 22.667 -4 32v29c-10.667 -19.333 -24.834 -36.333 -42.501 -51s-36.834 -27 -57.501 -37s-42.167 -17.667 -64.5 -23s-43.833 -8 -64.5 -8
c-56 0 -108.667 10.167 -158 30.5s-92.5 51 -129.5 92s-66.333 92.333 -88 154s-32.5 134.167 -32.5 217.5c0 80.667 11 152.834 33 216.501s51.667 117.5 89 161.5s80.5 77.667 129.5 101s100.5 35 154.5 35c18.667 0 38 -2.33301 58 -7s39.833 -11.167 59.5 -19.5
s38.334 -18.5 56.001 -30.5s33.5 -25 47.5 -39v501h258c0 -7.33301 -1.33301 -13.333 -4 -18s-5.5 -9 -8.5 -13l-9.5 -12.5c-3.33301 -4.33301 -5.33301 -9.5 -6 -15.5v-1208zM690.003 489.001c0 40 -2.66602 78.167 -7.99902 114.5s-14.666 68.5 -27.999 96.5
s-31.833 50.167 -55.5 66.5s-53.834 24.5 -90.501 24.5c-32 0 -58.5 -5.16699 -79.5 -15.5s-40.833 -25.833 -59.5 -46.5c-50.667 -54 -76 -141.333 -76 -262c0 -57.333 6.5 -105.5 19.5 -144.5s29.833 -70.5 50.5 -94.5s43.167 -41.333 67.5 -52s48.166 -16 71.499 -16
c28.667 0 54.5 6 77.5 18s42.667 31.167 59 57.5s29 60.333 38 102s13.5 92.167 13.5 151.5z" />
    <glyph glyph-name="e" unicode="e" 
d="M528 977c56.667 0 109.665 -10.001 158.998 -30.001s92.5 -49.5 129.5 -88.5s66.167 -87.667 87.5 -146s32 -125.833 32 -202.5c0 -16.667 -0.666992 -33 -2 -49l-4 -47h-627c5.33301 -46 16 -85.5 32 -118.5s35.333 -60.333 58 -82s47.834 -37.667 75.501 -48
s55.834 -15.5 84.501 -15.5c43.333 0 85.833 9.83301 127.5 29.5s77.5 48.5 107.5 86.5l127 -127c-96.667 -114.667 -217.334 -172 -362.001 -172c-68.667 0 -132.167 11.333 -190.5 34s-108.666 55.334 -150.999 98.001s-75.5 94.834 -99.5 156.501s-36 131.5 -36 209.5
c0 79.333 11.333 150.666 34 213.999s54.167 117 94.5 161s88 77.833 143 101.5s115.167 35.5 180.5 35.5zM706.998 581.999c0 30 -4.49902 58.499 -13.499 85.499s-21.667 50.667 -38 71s-36.333 36.5 -60 48.5s-50.167 18 -79.5 18c-28 0 -53.833 -5.33301 -77.5 -16
s-44.334 -25.667 -62.001 -45s-32 -42.666 -43 -69.999s-18.5 -58 -22.5 -92h396z" />
    <glyph glyph-name="f" unicode="f" 
d="M737 1399c127.333 0 233.332 -52 317.999 -156l-94 -184c-10.667 0 -17.834 3.33301 -21.501 10s-7.5 17.667 -11.5 33c-8 12 -18.167 24.667 -30.5 38s-26.666 25.666 -42.999 36.999s-34.666 20.833 -54.999 28.5s-41.833 11.5 -64.5 11.5
c-57.333 0 -100 -21.333 -128 -64s-42 -109 -42 -199v-49h293v-182h-293v-723h-223v723h-207v182h207v68c0 70.667 10.5 132.667 31.5 186s49.5 97.833 85.5 133.5s77.833 62.334 125.5 80.001s98.5 26.5 152.5 26.5z" />
    <glyph glyph-name="g" unicode="g" 
d="M475 809c-20.667 0 -39.833 -3.66602 -57.5 -10.999s-33.167 -17.833 -46.5 -31.5s-23.833 -30.334 -31.5 -50.001s-11.5 -42.167 -11.5 -67.5c0 -21.333 3.5 -41.333 10.5 -60s16.833 -35 29.5 -49s28 -25.167 46 -33.5s38.333 -12.5 61 -12.5
c23.333 0 44.333 4.16699 63 12.5s34.5 19.5 47.5 33.5s22.833 30.333 29.5 49s10 38.667 10 60s-3.33301 41.666 -10 60.999s-16.5 36.333 -29.5 51s-28.833 26.334 -47.5 35.001s-39.667 13 -63 13zM479.001 985.001c83.333 0 154.335 -22.3359 213.002 -67.0029
c30 20 62.333 35.167 97 45.5s72.667 15.5 114 15.5h66l30 -195c-12.667 2 -25.167 3.66699 -37.5 5s-23.333 2.66602 -33 3.99902s-17.834 2.33301 -24.501 3s-10.334 1 -11.001 1c-28.667 0 -58 -5.66699 -88 -17c9.33301 -21.333 17.166 -43.166 23.499 -65.499
s9.5 -44.833 9.5 -67.5c0 -45.333 -9.5 -88 -28.5 -128s-44.833 -75 -77.5 -105s-70.834 -53.667 -114.501 -71s-90.5 -26 -140.5 -26c-13.333 0 -27 0.666992 -41 2s-28.333 4.33301 -43 9c-18.667 -12.667 -33.5 -25 -44.5 -37s-16.5 -25.667 -16.5 -41
c0 -18.667 9.66699 -31.167 29 -37.5s44.333 -9.5 75 -9.5c23.333 0 47.666 1 72.999 3s48.333 3 69 3c67.333 0 124.5 -6.33301 171.5 -19s85 -30.5 114 -53.5s50 -50.167 63 -81.5s19.5 -66 19.5 -104c0 -39.333 -9.16699 -77.166 -27.5 -113.499
s-45.833 -68.833 -82.5 -97.5s-82.667 -51.5 -138 -68.5s-120 -25.5 -194 -25.5c-77.333 0 -143.666 6.5 -198.999 19.5s-100.666 30.667 -135.999 53s-61.333 48.333 -78 78s-25 61.167 -25 94.5c0 16.667 3 33.834 9 51.501s14.5 34.834 25.5 51.501
s24.167 32.334 39.5 47.001s32 27.667 50 39c-23.333 16.667 -39.333 36.5 -48 59.5s-13 46.167 -13 69.5c0 32 11 64.333 33 97s50 63 84 91c-20.667 12.667 -39 28.334 -55 47.001s-29.667 38.667 -41 60s-20 43.666 -26 66.999s-9 46.666 -9 69.999
c0 48 10.167 93 30.5 135s47.5 78.5 81.5 109.5s72.833 55.333 116.5 73s88.834 26.5 135.501 26.5zM616.003 19.998c-49.333 0 -94.9971 0.334961 -136.997 1.00195s-85.667 2.66699 -131 6c-24.667 -14.667 -42.834 -31.834 -54.501 -51.501s-17.5 -38.167 -17.5 -55.5
c0 -19.333 6.16699 -35.5 18.5 -48.5s29.166 -23.667 50.499 -32s46 -14.333 74 -18s57.667 -5.5 89 -5.5c32.667 0 62.667 2.83301 90 8.5s51 13.667 71 24s35.667 22.666 47 36.999s17.666 30.5 18.999 48.5c-2 25.333 -12 46 -30 62s-47.667 24 -89 24z" />
    <glyph glyph-name="h" unicode="h" 
d="M123 0l0.00195312 1382h260c0 -8 -1.33301 -14.333 -4 -19s-5.66699 -8.83398 -9 -12.501l-10 -11.5c-3.33301 -4 -5.33301 -9.33301 -6 -16v-465c33.333 36 72 64.833 116 86.5s88.667 32.5 134 32.5c48.667 0 92.667 -7.33301 132 -22s72.666 -37.834 99.999 -69.501
s48.5 -72.667 63.5 -123s22.5 -111.166 22.5 -182.499v-580h-226v578c0 36.667 -3.33301 68.334 -10 95.001s-16 48.5 -28 65.5s-26.333 29.5 -43 37.5s-35.334 12 -56.001 12c-28.667 0 -55.5 -5.66699 -80.5 -17s-46.667 -27.333 -65 -48s-32.833 -45.5 -43.5 -74.5
s-16 -60.833 -16 -95.5v-553h-231z" />
    <glyph glyph-name="i" unicode="i" 
d="M545 1384c19.333 0 37.666 -3.5 54.999 -10.5s32.5 -16.333 45.5 -28s23.333 -25.5 31 -41.5s11.5 -33 11.5 -51s-3.83301 -35 -11.5 -51s-18 -30 -31 -42s-28.167 -21.333 -45.5 -28s-35.666 -10 -54.999 -10s-37.833 3.33301 -55.5 10s-33 16 -46 28s-23.333 26 -31 42
s-11.5 33 -11.5 51c0 16 3 31.833 9 47.5s15 29.667 27 42s27 22.333 45 30s39 11.5 63 11.5zM207 956h448v-778h211v-178h-669v178h231v600h-221v178z" />
    <glyph glyph-name="j" unicode="j" 
d="M203 956l563.001 -0.00195312v-909c0 -72 -10.167 -133.833 -30.5 -185.5s-48 -94 -83 -127s-76.167 -57.333 -123.5 -73s-98 -23.5 -152 -23.5c-64.667 0 -122.834 13.5 -174.501 40.5s-99.5 66.5 -143.5 118.5l142 187c6.66699 -2.66699 11.167 -5.66699 13.5 -9
s4.33301 -7.66602 6 -12.999l6 -18.5c2.33301 -7 6.83301 -15.5 13.5 -25.5c6.66699 -9.33301 15 -19 25 -29s21.167 -19.333 33.5 -28s25.666 -15.667 39.999 -21s29.166 -8 44.499 -8c20.667 0 40.334 3.83301 59.001 11.5s34.834 19.834 48.501 36.501s24.5 38 32.5 64
s12 57.667 12 95v731h-332v186zM651.001 1393c19.333 0 37.832 -3.49902 55.499 -10.499s33.167 -16.667 46.5 -29s24 -26.833 32 -43.5s12 -34.334 12 -53.001c0 -18 -4 -35.167 -12 -51.5s-18.667 -30.666 -32 -42.999s-28.833 -22.166 -46.5 -29.499
s-36.167 -11 -55.5 -11s-37.833 3.66699 -55.5 11s-33.167 17.166 -46.5 29.499s-23.833 26.666 -31.5 42.999s-11.5 33.5 -11.5 51.5c0 16.667 3.16699 33.167 9.5 49.5s15.833 31 28.5 44s27.834 23.333 45.501 31s38.167 11.5 61.5 11.5z" />
    <glyph glyph-name="k" unicode="k" 
d="M123 1382h259.999c0 -8 -1.33301 -14.333 -4 -19s-5.66699 -8.66699 -9 -12s-6.66602 -7 -9.99902 -11s-5.33301 -9 -6 -15v-721l367 363c48.667 -11.333 87.667 -17 117 -17h149l-391 -377c34 -40.667 69.667 -86.167 107 -136.5l112.5 -152.5l111 -150.5l101.5 -131.5
l-280 -10l-316 440l-78 -74v-358h-231v1382z" />
    <glyph glyph-name="l" unicode="l" 
d="M150 1382h479v-1204h262v-178h-754v178h262v1026h-249v178z" />
    <glyph glyph-name="m" unicode="m" 
d="M66 0l0.000976562 966.999h196v-60c30 32 60.167 55 90.5 69s58.833 21 85.5 21c12.667 0 26.167 -1.83301 40.5 -5.5s28.333 -10 42 -19s26.834 -20.833 39.501 -35.5s24 -32.667 34 -54c23.333 37.333 52.666 65.666 87.999 84.999s70.666 29 105.999 29
c36.667 0 67.167 -6.16699 91.5 -18.5s43.833 -30.666 58.5 -54.999s25.167 -54.666 31.5 -90.999s9.5 -78.166 9.5 -125.499v-707h-213v668c0 53.333 -4.5 91.5 -13.5 114.5s-24.833 34.5 -47.5 34.5c-52 0 -78 -62.667 -78 -188v-629h-211v657
c0 34 -1.83301 61.5 -5.5 82.5s-8.33398 37.167 -14.001 48.5s-12 19 -19 23s-14.167 6 -21.5 6c-12.667 0 -24.167 -2.83301 -34.5 -8.5s-19.166 -15.334 -26.499 -29.001s-13 -32.167 -17 -55.5s-6 -53 -6 -89v-635h-206z" />
    <glyph glyph-name="n" unicode="n" 
d="M123 0l0.000976562 955.999h231v-98c33.333 36 72 64.833 116 86.5s88.667 32.5 134 32.5c48 0 91.667 -7.33301 131 -22s72.833 -37.834 100.5 -69.501s49 -72.667 64 -123s22.5 -111.166 22.5 -182.499v-580h-226v578c0 36.667 -3.33301 68.334 -10 95.001
s-16 48.5 -28 65.5s-26.333 29.5 -43 37.5s-35.334 12 -56.001 12c-28.667 0 -55.5 -5.66699 -80.5 -17s-46.667 -27.333 -65 -48s-32.833 -45.5 -43.5 -74.5s-16 -60.833 -16 -95.5v-553h-231z" />
    <glyph glyph-name="o" unicode="o" 
d="M520 977c62 0 120.004 -11.333 174.004 -34s101.167 -55.5 141.5 -98.5s72 -95.833 95 -158.5s34.5 -133.667 34.5 -213s-11.333 -150.333 -34 -213s-53.834 -115.667 -93.501 -159s-86.834 -76.5 -141.501 -99.5s-114 -34.5 -178 -34.5s-123.833 12.333 -179.5 37
s-104.334 59.334 -146.001 104.001s-74.334 97.667 -98.001 159s-35.5 128.666 -35.5 201.999c0 72.667 12.167 140 36.5 202s57.5 115.667 99.5 161s90.833 80.833 146.5 106.5s115.167 38.5 178.5 38.5zM737.004 469c0 52 -5.5 97.999 -16.5 137.999
s-26.5 73.833 -46.5 101.5s-43.667 48.667 -71 63s-57 21.5 -89 21.5c-32.667 0 -62.5 -7.16699 -89.5 -21.5s-50 -35.166 -69 -62.499s-33.833 -60.5 -44.5 -99.5s-16 -83.167 -16 -132.5s5.16699 -93.833 15.5 -133.5s25.166 -73.5 44.499 -101.5s42.833 -49.667 70.5 -65
s58.5 -23 92.5 -23c66.667 0 119.834 27 159.501 81s59.5 132 59.5 234z" />
    <glyph glyph-name="p" unicode="p" 
d="M342 487c0 -59.333 4.33203 -109.833 12.999 -151.5s21 -75.667 37 -102s35.5 -45.5 58.5 -57.5s48.833 -18 77.5 -18c23.333 0 47.333 5.33301 72 16s47.167 28 67.5 52s37 55.5 50 94.5s19.5 87.167 19.5 144.5c0 103.333 -18.5 183 -55.5 239s-90.167 84 -159.5 84
c-36.667 0 -66.667 -8.16699 -90 -24.5s-41.666 -38.333 -54.999 -66s-22.5 -59.667 -27.5 -96s-7.5 -74.5 -7.5 -114.5zM110.999 956h221.001v-98c15.333 21.333 32.333 39.5 51 54.5s38 27.333 58 37s40.167 16.667 60.5 21s40.166 6.5 59.499 6.5
c56 0 108.5 -10.833 157.5 -32.5s92 -54.167 129 -97.5s66.167 -97.833 87.5 -163.5s32 -142.5 32 -230.5c0 -80 -11 -150.167 -33 -210.5s-51.5 -110.833 -88.5 -151.5s-79.833 -71.167 -128.5 -91.5s-100 -30.5 -154 -30.5c-40 0 -80 8.5 -120 25.5
s-73.667 39.833 -101 68.5v-405h-229z" />
    <glyph glyph-name="q" unicode="q" 
d="M465 977c19.333 0 39.833 -2.33105 61.5 -6.99805s42.834 -11.334 63.501 -20.001s40.167 -19 58.5 -31s33.5 -25.333 45.5 -40v77h221v-1298h-229v408c-13.333 -15.333 -28.833 -29.166 -46.5 -41.499s-36.334 -22.833 -56.001 -31.5s-39.834 -15.167 -60.501 -19.5
s-40.667 -6.5 -60 -6.5c-56 0 -108.5 12.5 -157.5 37.5s-91.667 60.167 -128 105.5s-65.166 99.333 -86.499 162s-32 131.667 -32 207s10.333 143.666 31 204.999s49 113.666 85 156.999s78.833 76.833 128.5 100.5s103.5 35.5 161.5 35.5zM487 791.002
c-26.667 0 -51.835 -6.83301 -75.502 -20.5s-44.5 -33.5 -62.5 -59.5s-32.167 -57.833 -42.5 -95.5s-15.5 -80.5 -15.5 -128.5c0 -48.667 5.33301 -93 16 -133s25.334 -74.167 44.001 -102.5s40.5 -50.333 65.5 -66s51.5 -23.5 79.5 -23.5
c58.667 0 104.334 26.333 137.001 79s49 132.667 49 240c0 54.667 -4.5 101.667 -13.5 141s-22 71.5 -39 96.5s-37.5 43.333 -61.5 55s-51 17.5 -81 17.5z" />
    <glyph glyph-name="r" unicode="r" 
d="M182 956l236.002 0.00292969v-104c15.333 17.333 32.666 33.666 51.999 48.999s40 28.666 62 39.999s45.167 20.166 69.5 26.499s49.166 9.5 74.499 9.5c54 0 105.5 -8.5 154.5 -25.5s92.5 -43.5 130.5 -79.5l-107 -223c-33.333 46 -65.333 79.667 -96 101
s-61.334 32 -92.001 32c-35.333 0 -68.166 -7.5 -98.499 -22.5s-57 -35.333 -80 -61s-41 -55.667 -54 -90s-19.5 -70.5 -19.5 -108.5v-500h-232v956z" />
    <glyph glyph-name="s" unicode="s" 
d="M799 645c-5.33301 0 -9.50195 1.5 -12.502 4.5s-5.33301 6.66699 -7 11s-3.16699 9 -4.5 14s-3 9.5 -5 13.5c-12 14.667 -27 28.834 -45 42.501s-37.833 25.5 -59.5 35.5s-44.667 18 -69 24s-48.5 9 -72.5 9c-20.667 0 -40.334 -1.5 -59.001 -4.5
s-35.167 -7.83301 -49.5 -14.5s-25.666 -15.334 -33.999 -26.001s-12.5 -23.667 -12.5 -39c0 -17.333 4.5 -31.833 13.5 -43.5s22.5 -22.334 40.5 -32.001s40.667 -18.834 68 -27.501s59.666 -18 96.999 -28c114 -32 197.833 -73 251.5 -123s80.5 -107.333 80.5 -172
c0 -43.333 -9.66699 -84.333 -29 -123s-46.666 -72.834 -81.999 -102.501s-78.166 -53.167 -128.499 -70.5s-106.5 -26 -168.5 -26c-80.667 0 -155.167 12.833 -223.5 38.5s-132.5 66.834 -192.5 123.501l119 215c8 -1.33301 14 -6.16602 18 -14.499s9 -19.833 15 -34.5
c10.667 -17.333 26 -34.166 46 -50.499s42.333 -31.166 67 -44.499s50.5 -24 77.5 -32s52.833 -12 77.5 -12c54.667 0 97 7.83301 127 23.5s45 39.167 45 70.5c0 16 -3.33301 30 -10 42s-17.167 23.167 -31.5 33.5s-33.166 20 -56.499 29s-52 18.5 -86 28.5l-55.5 16
c-18.333 5.33301 -36.833 11.666 -55.5 18.999c-37.333 14 -70.666 29.833 -99.999 47.5s-54.166 37.5 -74.499 59.5s-35.833 46.833 -46.5 74.5s-16 58.5 -16 92.5s9.5 68 28.5 102s45.167 64.5 78.5 91.5s73.166 49 119.499 66s97.166 25.5 152.499 25.5
c72.667 0 140.167 -13 202.5 -39s119.5 -68.333 171.5 -127z" />
    <glyph glyph-name="t" unicode="t" 
d="M348 1180l254.002 42.998c0 -17.333 -2.66699 -31.666 -8 -42.999s-10 -24.333 -14 -39l-21 -185h289v-186h-297c-2 -49.333 -5.16699 -100.333 -9.5 -153s-6.5 -104.667 -6.5 -156c0 -52 1.16699 -96.667 3.5 -134s7.33301 -67.666 15 -90.999s18.667 -40.5 33 -51.5
s33.166 -16.5 56.499 -16.5c22.667 0 52.667 9.83301 90 29.5s79.666 47.5 126.999 83.5l72 -189c-56 -40 -110.833 -70.833 -164.5 -92.5s-106.834 -32.5 -159.501 -32.5c-53.333 0 -99.166 7.5 -137.499 22.5s-70 38.333 -95 70s-43.333 72.167 -55 121.5
s-17.5 108.333 -17.5 177c0 46 1.33301 102.833 4 170.5s7.66699 148.167 15 241.5h-207v186h219z" />
    <glyph glyph-name="u" unicode="u" 
d="M903 956l-0.00292969 -841.002c0 -17.333 1.83301 -35.666 5.5 -54.999s8.16699 -39.333 13.5 -60h-222c-8 6 -13.333 15 -16 27s-4 22.667 -4 32v31c-14 -20.667 -31 -39 -51 -55s-41.667 -29.667 -65 -41s-47.166 -20 -71.499 -26s-47.833 -9 -70.5 -9
c-50 0 -94.667 7.33301 -134 22s-72.666 38 -99.999 70s-48.166 73.333 -62.499 124s-21.5 111.667 -21.5 183v598h226v-598c0 -73.333 12.5 -126.833 37.5 -160.5s58.167 -50.5 99.5 -50.5c28.667 0 55.5 5.83301 80.5 17.5s46.667 27.834 65 48.501s32.833 45.5 43.5 74.5
s16 60.833 16 95.5v573h231z" />
    <glyph glyph-name="v" unicode="v" 
d="M51 956h277c0 -7.33301 -0.833008 -13.5 -2.5 -18.5l-5 -14.5l-5 -14.5c-1.66699 -5 -2.5 -10.833 -2.5 -17.5l217 -612l93 270c24 70 46.333 140.833 67 212.5s37 136.5 49 194.5h219c-16 -68.667 -35.833 -140.167 -59.5 -214.5s-51.5 -148.833 -83.5 -223.5l-213 -518
h-188z" />
    <glyph glyph-name="w" unicode="w" 
d="M16 956l254.002 -0.000976562c0 -7.33301 -1.16699 -13.166 -3.5 -17.499s-4.83301 -8.16602 -7.5 -11.499s-5.16699 -6.83301 -7.5 -10.5s-3.5 -8.83398 -3.5 -15.501v-10.5c0 -3.66699 0.666992 -7.5 2 -11.5l88 -598l119 565h141l135 -563
c10.667 69.333 19.167 135.5 25.5 198.5s11.333 121 15 174s6 99.667 7 140s1.5 72.833 1.5 97.5v63h217c-8.66699 -73.333 -18.334 -150.833 -29.001 -232.5s-22.334 -164 -35.001 -247s-26 -165.167 -40 -246.5s-28.333 -158 -43 -230h-203l-125 532l-118 -532h-209z" />
    <glyph glyph-name="x" unicode="x" 
d="M694 956h248l-305 -464l216 -310l128 -182h-262l-209 324l-197 -324h-262l330 485l-326 471h258l195 -309z" />
    <glyph glyph-name="y" unicode="y" 
d="M590 -104c-17.333 -46 -37.334 -85.3301 -60.001 -117.997s-47.334 -59.334 -74.001 -80.001s-55.167 -35.834 -85.5 -45.501s-61.833 -14.5 -94.5 -14.5c-94 0 -178.333 36 -253 108l114 197c8 -4 13.667 -8.33301 17 -13s6 -10 8 -16s4 -12.333 6 -19
s5.33301 -14 10 -22c9.33301 -16.667 20.833 -29 34.5 -37s30.834 -12 51.501 -12c14.667 0 28.667 3 42 9s26.5 16.333 39.5 31s25.833 34 38.5 58s25.334 54 38.001 90l-359 944h281c0 -7.33301 -0.666992 -13.5 -2 -18.5s-3 -9.83301 -5 -14.5s-3.66699 -9.5 -5 -14.5
s-2 -10.833 -2 -17.5l213 -594l92 252c12.667 34 24.834 69 36.501 105s22.5 71.667 32.5 107s19 69.5 27 102.5s15 63.833 21 92.5h219c-16.667 -68.667 -37.334 -139.834 -62.001 -213.501s-52 -148.5 -82 -224.5z" />
    <glyph glyph-name="z" unicode="z" 
d="M127 936l764 -0.000976562v-143l-490 -600h435c10.667 0.666992 20 2.66699 28 6s15.833 6.83301 23.5 10.5s15.167 6.83398 22.5 9.50098s16 4 26 4v-223h-848v143l496 598h-457v195z" />
    <glyph glyph-name="braceleft" unicode="{" 
d="M291 53c0 10.667 0.335938 24.832 1.00293 42.499l2 55.5l2 57c0.666992 18.667 1 34.667 1 48c0 34 -2.66699 62 -8 84s-13 39.5 -23 52.5s-22.5 22.167 -37.5 27.5s-31.833 8 -50.5 8h-86v182h84c42 0 73.333 12.833 94 38.5s31 67.5 31 125.5
c0 8 -0.166992 19.833 -0.5 35.5s-0.833008 32 -1.5 49s-1.16699 32.833 -1.5 47.5s-0.5 24.667 -0.5 30c0 122 32.667 214 98 276s163 93 293 93h166v-185h-201c-44 0 -76.5 -13.667 -97.5 -41s-31.5 -68.333 -31.5 -123c0 -9.33301 0.166992 -21.5 0.5 -36.5
s0.833008 -30.5 1.5 -46.5s1.16699 -31 1.5 -45s0.5 -24.333 0.5 -31c0 -60.667 -12.833 -114.667 -38.5 -162s-61.167 -85.666 -106.5 -114.999c20.667 -13.333 39.5 -29.833 56.5 -49.5s31.833 -42 44.5 -67s22.5 -52.333 29.5 -82s10.5 -61.167 10.5 -94.5
c0 -7.33301 -0.166992 -20.166 -0.5 -38.499s-0.833008 -37 -1.5 -56s-1.16699 -36.333 -1.5 -52s-0.5 -24.834 -0.5 -27.501c0 -70 14.667 -120.5 44 -151.5s77.666 -46.5 144.999 -46.5h143v-181h-115c-14 0 -34.833 0.833008 -62.5 2.5s-57.334 5 -89.001 10
s-62.834 12 -93.501 21s-56 21.167 -76 36.5c-42 32 -73.333 74.5 -94 127.5s-31 113.5 -31 181.5z" />
    <glyph glyph-name="bar" unicode="|" 
d="M403 1335h220v-1644h-220v1644z" />
    <glyph glyph-name="braceright" unicode="}" 
d="M735 53c0 -68 -10.3291 -128.498 -30.9961 -181.498s-52 -95.5 -94 -127.5c-20 -15.333 -45.333 -27.5 -76 -36.5s-61.834 -16 -93.501 -21s-61.334 -8.33301 -89.001 -10s-48.5 -2.5 -62.5 -2.5h-115v181h143c67.333 0 115.666 15.5 144.999 46.5s44 81.5 44 151.5
c0 2.66699 -0.166992 11.834 -0.5 27.501s-0.833008 33 -1.5 52s-1.16699 37.667 -1.5 56s-0.5 31.166 -0.5 38.499c0 33.333 3.5 64.833 10.5 94.5s16.667 57 29 82s27.166 47.333 44.499 67s36.333 36.167 57 49.5c-45.333 29.333 -80.833 67.666 -106.5 114.999
s-38.5 101.333 -38.5 162c0 6.66699 0.166992 17 0.5 31s0.833008 29 1.5 45s1.16699 31.5 1.5 46.5s0.5 27.167 0.5 36.5c0 54.667 -10.5 95.667 -31.5 123s-53.5 41 -97.5 41h-201v185h166c130 0 227.667 -31 293 -93s98 -154 98 -276
c0 -5.33301 -0.166992 -15.333 -0.5 -30s-0.833008 -30.5 -1.5 -47.5s-1.16699 -33.333 -1.5 -49s-0.5 -27.5 -0.5 -35.5c0 -58 10.333 -99.833 31 -125.5s52 -38.5 94 -38.5h84v-182h-86c-19.333 0 -36.333 -2.66699 -51 -8s-27 -14.5 -37 -27.5s-17.667 -30.5 -23 -52.5
s-8 -50 -8 -84c0 -13.333 0.333008 -29.333 1 -48l2 -57l2 -55.5c0.666992 -17.667 1 -31.834 1 -42.501z" />
    <glyph glyph-name="asciitilde" unicode="~" 
d="M55 776c20.667 33.333 44.166 63.668 70.499 91.001s53.5 50.833 81.5 70.5s56 34.834 84 45.501s54 16 78 16c20.667 0 39.5 -2.16699 56.5 -6.5s33.333 -10.5 49 -18.5s31.167 -17.667 46.5 -29l50 -38c18.667 -14 36.667 -26.667 54 -38s33.666 -17 48.999 -17
c14 0 26.833 2.66699 38.5 8s23.667 13.666 36 24.999s25.5 25.833 39.5 43.5s30 39.167 48 64.5l153 -123c-18.667 -30 -39.5 -58.333 -62.5 -85s-47.667 -50.167 -74 -70.5s-53.666 -36.333 -81.999 -48s-57.166 -17.5 -86.499 -17.5c-33.333 0 -63.5 6 -90.5 18
s-50.167 25.333 -69.5 40c-14 10 -27.333 20.333 -40 31s-25 20.167 -37 28.5s-24.5 15.166 -37.5 20.499s-27.167 8 -42.5 8c-20.667 0 -43.167 -10.333 -67.5 -31s-50.5 -54 -78.5 -100z" />
    <glyph glyph-name="Zcaron" 
d="M106 1276l838 0.00195312v-139l-567 -940h491c14.667 2 26.5 4.66699 35.5 8s17 6.66602 24 9.99902s14 6.16602 21 8.49902s15.833 3.5 26.5 3.5v-227h-891v139l578 938h-556v199zM825 1550l-272 -221h-63l-258 217l77 92l215 -135l232 129z" />
    <glyph glyph-name="Zcaron" unicode="&#x17d;" 
d="M106 1276l838 0.00195312v-139l-567 -940h491c14.667 2 26.5 4.66699 35.5 8s17 6.66602 24 9.99902s14 6.16602 21 8.49902s15.833 3.5 26.5 3.5v-227h-891v139l578 938h-556v199zM825 1550l-272 -221h-63l-258 217l77 92l215 -135l232 129z" />
    <glyph glyph-name="zcaron" 
d="M127 936l764 -0.000976562v-143l-490 -600h435c10.667 0.666992 20 2.66699 28 6s15.833 6.83301 23.5 10.5s15.167 6.83398 22.5 9.50098s16 4 26 4v-223h-848v143l496 598h-457v195zM791 1348l-236 -297h-66l-235 299l119 88l155 -181l164 179z" />
    <glyph glyph-name="zcaron" unicode="&#x17e;" 
d="M127 936l764 -0.000976562v-143l-490 -600h435c10.667 0.666992 20 2.66699 28 6s15.833 6.83301 23.5 10.5s15.167 6.83398 22.5 9.50098s16 4 26 4v-223h-848v143l496 598h-457v195zM791 1348l-236 -297h-66l-235 299l119 88l155 -181l164 179z" />
    <glyph glyph-name="nonbreakingspace" unicode="&#xa0;" 
 />
    <glyph glyph-name="exclamdown" unicode="&#xa1;" 
d="M604 1122c-31.333 -30 -69.667 -44.999 -115 -44.999c-21.333 0 -41.5 4 -60.5 12s-35.667 19 -50 33s-25.666 30 -33.999 48s-12.5 37 -12.5 57c0 20.667 4.16699 39.834 12.5 57.501s19.666 33.167 33.999 46.5s31 23.833 50 31.5s39.167 11.5 60.5 11.5
s41.833 -3.83301 61.5 -11.5s37 -18.334 52 -32.001s26.833 -29.334 35.5 -47.001s13 -36.5 13 -56.5c0 -19.333 -4 -37.5 -12 -54.5s-19.667 -33.833 -35 -50.5zM493.999 -19.999c-46 0 -81.501 15.166 -106.501 45.499s-37.5 73.833 -37.5 130.5
c0 14.667 0.833008 32.167 2.5 52.5s3.83398 41.333 6.50098 63s5 43 7 64s3.66699 39.5 5 55.5l28 557h185l37 -557c0.666992 -15.333 2 -32.666 4 -51.999s3.83301 -39 5.5 -59s3.16699 -39.167 4.5 -57.5s2 -33.833 2 -46.5c0 -69.333 -12.833 -119.333 -38.5 -150
s-60.5 -46 -104.5 -46z" />
    <glyph glyph-name="cent" unicode="&#xa2;" 
d="M805 696c-6 1.33301 -10.334 3.83105 -13.001 7.49805s-4.66699 8 -6 13s-2.5 10.333 -3.5 16s-2.5 11.5 -4.5 17.5c-10 16 -22.167 31 -36.5 45s-30.833 26 -49.5 36l-76 -587c32 5.33301 64.833 17.666 98.5 36.999s65.834 48 96.501 86l133 -154
c-50 -56.667 -105 -98.334 -165 -125.001s-123 -41.667 -189 -45l-27 -205l-201 25l27 209c-46 17.333 -88 41.166 -126 71.499s-70.5 65.833 -97.5 106.5s-48 85.834 -63 135.501s-22.5 102.834 -22.5 159.501c0 66 10.333 128 31 186s50 109.333 88 154
s83.333 81.334 136 110.001s111 46.667 175 54l29 229l221 -21c0 -11.333 -1.83301 -21.166 -5.5 -29.499s-8.16699 -20.166 -13.5 -35.499l-22 -160c90 -24 163.667 -75.667 221 -155zM312.999 556.998c0 -54 8.33301 -103.001 25 -147.001s42.667 -81 78 -111l67 547
c-26 -9.33301 -49.5 -23.166 -70.5 -41.499s-38.833 -40 -53.5 -65s-26 -53 -34 -84s-12 -63.833 -12 -98.5z" />
    <glyph glyph-name="sterling" unicode="&#xa3;" 
d="M750 977c-20 8 -34.502 19 -43.502 33l-26 42c-8.33301 14 -19.333 26.167 -33 36.5s-34.834 15.5 -63.501 15.5c-20.667 0 -40.5 -4.16699 -59.5 -12.5s-35.833 -21 -50.5 -38s-26.334 -38.167 -35.001 -63.5s-13 -55 -13 -89c0 -11.333 0.5 -23.666 1.5 -36.999
s3.16699 -30.333 6.5 -51h205v-182h-162c5.33301 -28 9.16602 -57.333 11.499 -88s3.5 -56.667 3.5 -78c0 -18.667 -0.833008 -38.334 -2.5 -59.001s-4.66699 -41.334 -9 -62.001s-10.5 -40.334 -18.5 -59.001s-18 -35 -30 -49c6 1.33301 13.833 2 23.5 2h29.5
c20.667 0 42.834 -3.5 66.501 -10.5s47.334 -14.5 71.001 -22.5l67 -22.5c21 -7 38.833 -10.5 53.5 -10.5c10.667 0 21.5 1.66699 32.5 5s22.5 8.5 34.5 15.5s25.167 15.833 39.5 26.5l47.5 37l86 -176c-88.667 -72.667 -172.667 -109 -252 -109
c-22.667 0 -49.5 4.5 -80.5 13.5s-63 18.833 -96 29.5l-95.5 29.5c-30.667 9 -56.667 13.5 -78 13.5c-22.667 0 -54.167 -7.83301 -94.5 -23.5s-89.5 -38.5 -147.5 -68.5l-82 182c26 10 48.167 19.5 66.5 28.5s33.666 17.5 45.999 25.5s22 15.667 29 23
s12.5 14.666 16.5 21.999c18.667 30.667 32.834 64.5 42.501 101.5s14.5 75.5 14.5 115.5c0 10 -0.333008 21.5 -1 34.5s-1.66699 27 -3 42s-3.16602 30.333 -5.49902 46s-5.16602 30.834 -8.49902 45.501h-133v182h92c-3.33301 16.667 -5.5 31.834 -6.5 45.501
s-1.5 27.167 -1.5 40.5c0 56.667 9.83301 108.834 29.5 156.501s46.5 88.667 80.5 123s74 61.166 120 80.499s95.667 29 149 29c60.667 0 115.334 -11.667 164.001 -35s95 -58.666 139 -105.999z" />
    <glyph glyph-name="currency" unicode="&#xa4;" 
d="M106 987l133.999 121.002l110 -111c24.667 12.667 51.167 22.667 79.5 30s56.5 11 84.5 11s55.5 -3.33301 82.5 -10s52.833 -16.334 77.5 -29.001l110 109l134 -121l-113 -110c17.333 -27.333 29.5 -55 36.5 -83s10.5 -56.333 10.5 -85c0 -30 -3.66699 -58.833 -11 -86.5
s-19.333 -54.834 -36 -81.501l113 -111l-134 -121l-108 109c-25.333 -14.667 -51.5 -24.834 -78.5 -30.501s-54.833 -8.5 -83.5 -8.5c-30.667 0 -59.667 3.16699 -87 9.5s-53.666 16.833 -78.999 31.5l-108 -111l-134 121l113 115c-14.667 25.333 -25.834 52 -33.501 80
s-11.5 56 -11.5 84c0 28.667 3.33301 56.334 10 83.001s18.334 54 35.001 82zM359.999 707.002c0 -23.333 3.83301 -45 11.5 -65s18.334 -37.5 32.001 -52.5s29.834 -26.833 48.501 -35.5s38.667 -13 60 -13s41.333 4.33301 60 13s34.834 20.5 48.501 35.5
s24.334 32.5 32.001 52.5s11.5 41.667 11.5 65c0 22.667 -3.83301 44.167 -11.5 64.5s-18.334 38.166 -32.001 53.499s-29.834 27.333 -48.501 36s-38.667 13 -60 13s-41.333 -4.33301 -60 -13s-34.834 -20.667 -48.501 -36s-24.334 -33.166 -32.001 -53.499
s-11.5 -41.833 -11.5 -64.5z" />
    <glyph glyph-name="yen" unicode="&#xa5;" 
d="M152 592h258l-375 684h254l239 -483l222 483h239l-350 -684h252v-182h-252v-62h252v-180h-252v-168h-223v168h-264v180h264v62h-264v182z" />
    <glyph glyph-name="brokenbar" unicode="&#xa6;" 
d="M403 1335h220v-778h-220v778zM623 -309h-220v755h220v-755z" />
    <glyph glyph-name="section" unicode="&#xa7;" 
d="M705 1020c-12.667 2.66699 -20.665 7.33398 -23.998 14.001s-6.33301 20.334 -9 41.001c-3.33301 16.667 -9.5 32.5 -18.5 47.5s-20 28.167 -33 39.5s-28 20.5 -45 27.5s-34.833 10.5 -53.5 10.5c-17.333 0 -33.333 -3.16699 -48 -9.5s-27.5 -14.833 -38.5 -25.5
s-19.5 -23.167 -25.5 -37.5s-9 -29.166 -9 -44.499c0 -19.333 4.33301 -36.666 13 -51.999s22.167 -29.666 40.5 -42.999s41.833 -26.333 70.5 -39s62.667 -26 102 -40c28 -10 56.667 -23.167 86 -39.5s55.833 -36.333 79.5 -60s43.167 -50.5 58.5 -80.5s23 -63.333 23 -100
c0 -21.333 -3.33301 -42.166 -10 -62.499s-15.834 -39.5 -27.501 -57.5s-25.5 -34.167 -41.5 -48.5s-33.333 -25.833 -52 -34.5c36 -28 63.833 -59.833 83.5 -95.5s29.5 -73.5 29.5 -113.5c0 -47.333 -9 -91.333 -27 -132s-43.333 -76 -76 -106s-71.5 -53.5 -116.5 -70.5
s-94.833 -25.5 -149.5 -25.5c-74.667 0 -144.334 17.167 -209.001 51.5s-121 84.833 -169 151.5l141 166c10 0 16.833 -2.33301 20.5 -7s7.83398 -13.334 12.501 -26.001c4 -14 12.333 -29 25 -45s28 -30.667 46 -44s38 -24.333 60 -33s44.333 -13 67 -13
c24 0 45.333 3.33301 64 10s34.167 15.5 46.5 26.5s21.666 23.667 27.999 38s9.5 29.166 9.5 44.499c0 16.667 -2.83301 32 -8.5 46s-15.834 27 -30.501 39s-34.167 23.5 -58.5 34.5s-54.833 22.167 -91.5 33.5c-54 16.667 -100 35.334 -138 56.001s-69 43.167 -93 67.5
s-41.333 50.666 -52 78.999s-16 58.5 -16 90.5c0 19.333 3.83301 39.666 11.5 60.999s18.334 41.833 32.001 61.5s29.834 37.667 48.501 54s39.334 29.166 62.001 38.499c-18.667 10.667 -35.667 24 -51 40s-28.5 33.167 -39.5 51.5s-19.5 37.666 -25.5 57.999
s-9 40.166 -9 59.499c0 40.667 8.66699 80 26 118s41.666 71.333 72.999 100s68.666 51.667 111.999 69s91 26 143 26c38 0 74.167 -5.33301 108.5 -16s66.166 -25.5 95.499 -44.5s56.333 -42 81 -69s46.334 -56.833 65.001 -89.5zM412.002 778
c-6 -3.33301 -11.5 -8.33203 -16.5 -14.999s-9.16699 -14.167 -12.5 -22.5s-5.83301 -17.333 -7.5 -27s-2.5 -18.834 -2.5 -27.501c0 -32 13.333 -61.333 40 -88s67.334 -48.667 122.001 -66c6.66699 -2 15 -4.16699 25 -6.5s26.667 -7.5 50 -15.5
c9.33301 8 16.5 20.333 21.5 37s7.5 33.667 7.5 51c0 32 -12.833 61.5 -38.5 88.5s-66.834 50.167 -123.501 69.5z" />
    <glyph glyph-name="dieresis" unicode="&#xa8;" 
d="M326 1386c18 0 35.5 -3.16699 52.5 -9.5s32.167 -15.333 45.5 -27s24.166 -25.667 32.499 -42s12.5 -34.5 12.5 -54.5c0 -18 -3.83301 -34.833 -11.5 -50.5s-18 -29.5 -31 -41.5s-28.167 -21.5 -45.5 -28.5s-35.666 -10.5 -54.999 -10.5s-37.666 3.5 -54.999 10.5
s-32.5 16.5 -45.5 28.5s-23.167 25.833 -30.5 41.5s-11 32.5 -11 50.5s3.66699 35 11 51s17.5 30.167 30.5 42.5s28.167 22 45.5 29s35.666 10.5 54.999 10.5zM702 1386c17.333 0 34.5 -3.16699 51.5 -9.5s32.167 -15.333 45.5 -27s24.166 -25.667 32.499 -42
s12.5 -34.5 12.5 -54.5c0 -18 -3.66699 -34.833 -11 -50.5s-17.5 -29.5 -30.5 -41.5s-28.167 -21.5 -45.5 -28.5s-35.666 -10.5 -54.999 -10.5s-37.5 3.33301 -54.5 10s-32 16 -45 28s-23.167 26 -30.5 42s-11 33 -11 51c0 18.667 3.66699 36 11 52s17.5 30 30.5 42
s28 21.5 45 28.5s35.167 10.5 54.5 10.5z" />
    <glyph glyph-name="copyright" unicode="&#xa9;" 
d="M643 596c-5.33301 1.33301 -8.83301 4 -10.5 8s-3 8.66699 -4 14s-1.66699 11 -2 17s-1.5 12 -3.5 18c-7.33301 21.333 -20.166 38.666 -38.499 51.999s-39.833 20 -64.5 20c-14 0 -27.833 -2.5 -41.5 -7.5s-26.167 -13.333 -37.5 -25s-20.5 -27.167 -27.5 -46.5
s-10.5 -43 -10.5 -71c0 -52 10 -94.667 30 -128s51 -50 93 -50c31.333 0 56.666 8.66699 75.999 26s35.666 43 48.999 77l144 -92c-29.333 -52 -68.166 -93 -116.499 -123s-101.833 -45 -160.5 -45c-45.333 0 -86.5 8.83301 -123.5 26.5s-68.5 41.334 -94.5 71.001
s-46 64.167 -60 103.5s-21 80.666 -21 123.999c0 44.667 7.66699 86.167 23 124.5s36 71.5 62 99.5s56.167 50 90.5 66s70.833 24 109.5 24c42.667 0 80.667 -5.66699 114 -17s62.5 -27.166 87.5 -47.499s45.5 -44.333 61.5 -72s28 -57.5 36 -89.5zM868 193
c-48 -50.667 -102.668 -89.3311 -164.001 -115.998s-127.333 -40 -198 -40c-69.333 0 -134.166 13.833 -194.499 41.5s-112.833 65.167 -157.5 112.5s-79.834 102.666 -105.501 165.999s-38.5 130.666 -38.5 201.999c0 72 13.333 139.667 40 203
s62.834 118.666 108.501 165.999s99 84.666 160 111.999s126.167 41 195.5 41c68 0 132.5 -13.667 193.5 -41s114.5 -64.666 160.5 -111.999s82.5 -102.666 109.5 -165.999s40.5 -131 40.5 -203c0 -141.333 -50 -263.333 -150 -366zM515.999 967.003
c-50 0 -96.999 -10.6641 -140.999 -31.9971s-82.167 -50.333 -114.5 -87s-57.833 -79.834 -76.5 -129.501s-28 -102.834 -28 -159.501c0 -56 9.33301 -108.333 28 -157s44.167 -91.334 76.5 -128.001s70.5 -65.5 114.5 -86.5s91 -31.5 141 -31.5
c49.333 0 95.833 10.833 139.5 32.5s82 51 115 88s59 80 78 129s28.5 100.833 28.5 155.5s-9.33301 106.667 -28 156s-44.334 92.5 -77.001 129.5s-71 66.333 -115 88s-91 32.5 -141 32.5z" />
    <glyph glyph-name="ordfeminine" unicode="&#xaa;" 
d="M449 985c38 3.33301 70.8359 5.16797 98.5029 5.50098s52.167 0.5 73.5 0.5c0 42 -9 72.667 -27 92s-44 29 -78 29c-32.667 0 -63.5 -8.33301 -92.5 -25s-58.833 -42.334 -89.5 -77.001l-113 133c46 46.667 93.667 80.5 143 101.5s104 31.5 164 31.5
c93.333 0 166.166 -23.167 218.499 -69.5s78.5 -114.833 78.5 -205.5v-466h-202v51c-10 -10.667 -22 -20.5 -36 -29.5s-29 -16.667 -45 -23s-32.333 -11.166 -49 -14.499s-32.334 -5 -47.001 -5c-38 0 -73.167 5.66699 -105.5 17s-60.333 27.333 -84 48s-42 45 -55 73
s-19.5 59 -19.5 93c0 67.333 23.167 121.166 69.5 161.499s112.166 66.5 197.499 78.5zM627.003 842.002c-45.333 0 -83.166 -1.66602 -113.499 -4.99902s-54.5 -8.66602 -72.5 -15.999s-30.833 -17 -38.5 -29s-11.5 -26.667 -11.5 -44
c0 -8.66699 1.83301 -17.334 5.5 -26.001s9.33398 -16.334 17.001 -23.001s17 -12.167 28 -16.5s23.5 -6.5 37.5 -6.5c16.667 0 33.667 2.33301 51 7s33.166 13.334 47.499 26.001s26.166 29.667 35.499 51s14 48.666 14 81.999zM141.003 453.003h748v-160h-748v160z" />
    <glyph glyph-name="guillemotleft" unicode="&#xab;" 
d="M463 532l334 324l133 -137l-234 -223l244 -265l-135 -135l-342 369v67zM457 856l131 -137l-232 -223l244 -265l-137 -135l-342 369v67z" />
    <glyph glyph-name="logicalnot" unicode="&#xac;" 
d="M166 750h702v-435h-215v240h-487v195z" />
    <glyph glyph-name="softhyphen" unicode="&#xad;" 
d="M131 750h768v-187h-768v187z" />
    <glyph glyph-name="registered" unicode="&#xae;" 
d="M868 193c-48 -50.667 -102.668 -89.3311 -164.001 -115.998s-127.333 -40 -198 -40c-69.333 0 -134.166 13.833 -194.499 41.5s-112.833 65.167 -157.5 112.5s-79.834 102.666 -105.501 165.999s-38.5 130.666 -38.5 201.999c0 72 13.333 139.667 40 203
s62.834 118.666 108.501 165.999s99 84.666 160 111.999s126.167 41 195.5 41c68 0 132.5 -13.667 193.5 -41s114.5 -64.666 160.5 -111.999s82.5 -102.666 109.5 -165.999s40.5 -131 40.5 -203c0 -141.333 -50 -263.333 -150 -366zM515.999 967.003
c-50 0 -96.999 -10.6641 -140.999 -31.9971s-82.167 -50.333 -114.5 -87s-57.833 -79.834 -76.5 -129.501s-28 -102.834 -28 -159.501c0 -56 9.33301 -108.333 28 -157s44.167 -91.334 76.5 -128.001s70.5 -65.5 114.5 -86.5s91 -31.5 141 -31.5
c49.333 0 95.833 10.833 139.5 32.5s82 51 115 88s59 80 78 129s28.5 100.833 28.5 155.5s-9.33301 106.667 -28 156s-44.334 92.5 -77.001 129.5s-71 66.333 -115 88s-91 32.5 -141 32.5zM305 281.006l-0.000976562 575h191c46 0 85.167 -4.16699 117.5 -12.5
s58.833 -20 79.5 -35s35.667 -33.167 45 -54.5s14 -45.333 14 -72c0 -33.333 -9.16699 -63.833 -27.5 -91.5s-44.166 -49.167 -77.499 -64.5l119 -231l-150 -23l-114 232h-56v-223h-141zM501.999 618.006c32.667 0 56.167 5.33203 70.5 15.999s21.5 25.334 21.5 44.001
c0 16.667 -7.66699 29.667 -23 39s-40.333 14 -75 14h-50v-113h56z" />
    <glyph glyph-name="macron" unicode="&#xaf;" 
d="M221 1315h574v-180h-574v180z" />
    <glyph glyph-name="degree" unicode="&#xb0;" 
d="M524 1364c42 0 81.333 -7.83105 118 -23.498s68.5 -36.834 95.5 -63.501s48.333 -57.667 64 -93s23.5 -72.333 23.5 -111s-7.83301 -75.667 -23.5 -111s-37 -66.333 -64 -93s-58.833 -47.834 -95.5 -63.501s-76 -23.5 -118 -23.5s-81.333 7.5 -118 22.5
s-68.5 35.667 -95.5 62s-48.333 57.166 -64 92.499s-23.5 73.333 -23.5 114s8.16699 78.834 24.5 114.501s38.333 66.5 66 92.5s59.667 46.5 96 61.5s74.5 22.5 114.5 22.5zM418 1075c0 -37.333 9.66699 -67.835 29 -91.502s45 -35.5 77 -35.5s58.167 11.833 78.5 35.5
s30.5 54.167 30.5 91.5c0 18.667 -2.66699 35.834 -8 51.501s-12.833 29.167 -22.5 40.5s-21.167 20.333 -34.5 27s-28 10 -44 10c-32 0 -57.667 -12.167 -77 -36.5s-29 -55.166 -29 -92.499z" />
    <glyph glyph-name="plusminus" unicode="&#xb1;" 
d="M80 225h868v-192h-868v192zM412 1180h213v-324h321v-190h-321v-353h-213v353h-334v190h334v324z" />
    <glyph glyph-name="uni00B2" unicode="&#xb2;" 
d="M193 1130c38 65.333 86.332 116.157 144.999 152.49s125.667 54.5 201 54.5c37.333 0 73.333 -6.16699 108 -18.5s65.334 -29.666 92.001 -51.999s48 -49.166 64 -80.499s24 -65.666 24 -102.999c0 -27.333 -3.5 -51.666 -10.5 -72.999s-19.333 -42.666 -37 -63.999
s-41.334 -44.166 -71.001 -68.499s-67.167 -53.166 -112.5 -86.499l-33 -25l-19 -13.5c-5.33301 -3.66699 -10.666 -8 -15.999 -13s-13.333 -13.167 -24 -24.5h266c6.66699 0.666992 12.5 2.66699 17.5 6s10 6.5 15 9.5s10.5 5.83301 16.5 8.5s13.667 4 23 4v-204h-621v129
c36 48.667 75.333 94 118 136s92 84 148 126l54 41c26.667 20.667 46.167 41.167 58.5 61.5s18.5 38.5 18.5 54.5c0 20.667 -8.16699 38.834 -24.5 54.501s-37.5 23.5 -63.5 23.5c-32 0 -61.5 -7.5 -88.5 -22.5s-47.167 -37.5 -60.5 -67.5
c-4 -9.33301 -7 -18.166 -9 -26.499s-6.66699 -17.166 -14 -26.499z" />
    <glyph glyph-name="uni00B3" unicode="&#xb3;" 
d="M508 1337c40.667 0 78.8311 -6.32812 114.498 -18.9951s66.834 -29.834 93.501 -51.501s47.5 -47 62.5 -76s22.5 -59.833 22.5 -92.5c0 -14.667 -2.16699 -28.834 -6.5 -42.501s-10.333 -26.667 -18 -39s-16.5 -23.5 -26.5 -33.5s-21 -18.333 -33 -25
c15.333 -7.33301 30 -16.666 44 -27.999s26.5 -24.5 37.5 -39.5s19.667 -31.167 26 -48.5s9.5 -35.333 9.5 -54c0 -34.667 -9.16699 -67.334 -27.5 -98.001s-42.833 -57.5 -73.5 -80.5s-66 -41.167 -106 -54.5s-81.667 -20 -125 -20c-123.333 0 -232 53 -326 159l150 170
c8 -9.33301 14.333 -19.5 19 -30.5l15 -34.5c6 -10.667 13.5 -21 22.5 -31s19 -19 30 -27s23 -14.333 36 -19s26.5 -7 40.5 -7c40 0 72.333 8.16699 97 24.5s37 36.166 37 59.499c0 21.333 -10.5 37.833 -31.5 49.5s-50.167 17.5 -87.5 17.5h-11.5
c-3.66699 0 -9.16699 -0.166992 -16.5 -0.5s-17 -0.833008 -29 -1.5s-28 -1.33398 -48 -2.00098v178c16.667 -2 30 -3.5 40 -4.5s18 -1.83301 24 -2.5s10.5 -1 13.5 -1h8.5c39.333 0 67.333 5.66699 84 17s25 25.666 25 42.999c0 8.66699 -2.33301 17.167 -7 25.5
s-11 15.833 -19 22.5s-17.667 12.167 -29 16.5s-23.666 6.5 -36.999 6.5c-55.333 0 -113.333 -37.333 -174 -112l-129 131c87.333 103.333 190.333 155 309 155z" />
    <glyph glyph-name="acute" unicode="&#xb4;" 
d="M571 1462l166 -114l-215 -289l-114 67z" />
    <glyph glyph-name="micro" unicode="&#xb5;" 
d="M770 256c0 -61.333 8.99609 -92.0029 26.9961 -92.0029c8 0 16.833 5.33301 26.5 16s17.167 21.667 22.5 33l53 102l105 -194c-65.333 -92.667 -138 -139 -218 -139c-36 0 -68.167 7.5 -96.5 22.5s-51.166 36.167 -68.499 63.5c-30 -28 -64.667 -49.333 -104 -64
s-78.666 -22 -117.999 -22c-30 0 -59.5 4 -88.5 12s-55.5 19.667 -79.5 35v-344h-211c0 12.667 0.333008 31.834 1 57.501s1.83398 54.834 3.50098 87.501l5.5 103c2 36 4.33301 70.667 7 104c2 37.333 4.16699 74.833 6.5 112.5l6.5 107c2 33.667 3.66699 64.5 5 92.5
s2 51 2 69v518h219v-549c0 -45.333 3.83301 -82.333 11.5 -111s17.834 -51.667 30.501 -69s27.334 -29.666 44.001 -36.999s34 -12 52 -14c17.333 3.33301 34.333 10 51 20s31.667 24 45 42s24.166 40.5 32.499 67.5s12.5 59.5 12.5 97.5v553h215v-680z" />
    <glyph glyph-name="paragraph" unicode="&#xb6;" 
d="M930 1364v-1505h-203v1323h-80v-1323h-205v790c-48.667 7.33301 -93.667 21.833 -135 43.5s-77 48.5 -107 80.5s-53.5 68.167 -70.5 108.5s-25.5 82.5 -25.5 126.5c0 48.667 8.66699 94.5 26 137.5s46 80.667 86 113s92.667 58 158 77s146 28.5 242 28.5h314z" />
    <glyph glyph-name="periodcentered" unicode="&#xb7;" 
d="M487 827c20.667 0 40.834 -4.16992 60.501 -12.5029s37 -19.166 52 -32.499s27 -28.666 36 -45.999s13.5 -35.333 13.5 -54c0 -20 -4.16699 -38.833 -12.5 -56.5s-19.833 -33 -34.5 -46s-31.834 -23.333 -51.501 -31s-40.834 -11.5 -63.501 -11.5
c-22 0 -42.5 3.66699 -61.5 11s-35.667 17.5 -50 30.5s-25.5 28.333 -33.5 46s-12 36.834 -12 57.501c0 20 4.33301 38.833 13 56.5s20.334 33 35.001 46s31.5 23.333 50.5 31s38.5 11.5 58.5 11.5z" />
    <glyph glyph-name="cedilla" unicode="&#xb8;" 
d="M629 -215c0 7.33301 -4.66309 14.666 -13.9961 21.999s-22.666 11 -39.999 11h-100l25 182h164l-9 -63c52 -5.33301 91.667 -21 119 -47s41 -59 41 -99c0 -21.333 -5.33301 -42.833 -16 -64.5s-26.834 -41 -48.501 -58s-48.834 -30.833 -81.501 -41.5
s-71.334 -16 -116.001 -16c-43.333 0 -86.833 7.16699 -130.5 21.5s-86.167 38.5 -127.5 72.5l76 129c20 -16.667 38.667 -30.5 56 -41.5s34.333 -19.667 51 -26s33.167 -10.666 49.5 -12.999s33.166 -3.5 50.499 -3.5c19.333 0 32.666 4 39.999 12s11 15.667 11 23z" />
    <glyph glyph-name="uni00B9" unicode="&#xb9;" 
d="M627 1329v-790h-215v551l-162 -41l-60 118l291 162h146z" />
    <glyph glyph-name="ordmasculine" unicode="&#xba;" 
d="M174 915c0 58.667 9.16797 112.165 27.501 160.498s43 89.833 74 124.5s66.833 61.5 107.5 80.5s83 28.5 127 28.5c45.333 0 87.833 -8.33301 127.5 -25s74.167 -41 103.5 -73s52.5 -71.667 69.5 -119s25.5 -101.333 25.5 -162c0 -61.333 -9.16699 -115.833 -27.5 -163.5
s-42.833 -88.167 -73.5 -121.5s-66.167 -58.666 -106.5 -75.999s-82.5 -26 -126.5 -26c-46 0 -88.833 9 -128.5 27s-74.334 43.333 -104.001 76s-53 71.834 -70 117.501s-25.5 96.167 -25.5 151.5zM506.001 1126c-17.333 0 -33.502 -4.50098 -48.502 -13.501
s-28.167 -22.167 -39.5 -39.5s-20.333 -38.5 -27 -63.5s-10 -53.5 -10 -85.5c0 -31.333 3.33301 -59.166 10 -83.499s15.667 -44.666 27 -60.999s24.333 -28.833 39 -37.5s30.334 -13 47.001 -13s32.5 4.16699 47.5 12.5s28.333 20.666 40 36.999s20.834 36.5 27.501 60.5
s10 51.667 10 83c0 32 -3.33301 60.667 -10 86s-15.667 46.833 -27 64.5s-24.5 31 -39.5 40s-30.5 13.5 -46.5 13.5zM136.999 482.997h752v-176h-752v176z" />
    <glyph glyph-name="guillemotright" unicode="&#xbb;" 
d="M598 465l-342 -369l-135 135l244 265l-234 223l133 137l334 -324v-67zM940 465l-342 -369l-137 135l244 265l-232 223l131 137l336 -324v-67z" />
    <glyph glyph-name="onequarter" unicode="&#xbc;" 
d="M782 514h129v-379h97v-127h-97v-151h-176v151h-278v92zM737 258l-100 -127h100v127zM365 1386v-638h-185v450l-133 -35l-47 94l240 129h125zM113 -10l635 1376l178 -92l-633 -1370z" />
    <glyph glyph-name="onehalf" unicode="&#xbd;" 
d="M500 336c33.333 52.667 72.332 93.501 116.999 122.501s99.667 43.5 165 43.5c32 0 61.667 -5.66699 89 -17s51.166 -26.666 71.499 -45.999s36.333 -41.5 48 -66.5s17.5 -50.833 17.5 -77.5c0 -22.667 -2.66699 -42.667 -8 -60s-15 -34.833 -29 -52.5
s-33.167 -36.334 -57.5 -56.001s-55.166 -42.834 -92.499 -69.501c-14 -10 -27.667 -20.5 -41 -31.5l-37 -31.5h224c8.66699 2 16.667 6.5 24 13.5s17.666 10.5 30.999 10.5v-168h-508v105c28 32.667 61.333 67.5 100 104.5l117 108.5c10 9.33301 20.833 18.833 32.5 28.5
s22.334 19.5 32.001 29.5s17.667 20.333 24 31s9.5 21.334 9.5 32.001c0 23.333 -8.83301 41.833 -26.5 55.5s-38.167 20.5 -61.5 20.5c-22.667 0 -41.167 -6.33301 -55.5 -19s-25.166 -30.334 -32.499 -53.001c-2 -6 -4 -13 -6 -21s-6 -16 -12 -24zM364.999 1386v-638h-185
v450l-133 -35l-47 94l240 129h125zM89.999 -9.99902l635 1376l178 -92l-633 -1370z" />
    <glyph glyph-name="threequarters" unicode="&#xbe;" 
d="M264 1409c33.333 0 64.499 -5.16309 93.499 -15.4961s54.167 -24.333 75.5 -42s38.166 -38.334 50.499 -62.001s18.5 -48.834 18.5 -75.501c0 -10.667 -1.83301 -21.667 -5.5 -33s-8.83398 -22.166 -15.501 -32.499s-14.5 -19.833 -23.5 -28.5
s-18.833 -15.334 -29.5 -20.001c28 -14.667 51.667 -34.167 71 -58.5s29 -50.5 29 -78.5c0 -30.667 -7.33301 -58.667 -22 -84s-34.5 -47.166 -59.5 -65.499s-53.667 -32.5 -86 -42.5s-66.5 -15 -102.5 -15c-50 0 -95.667 10.667 -137 32s-81.666 53.666 -120.999 96.999
l117 129c10 -8.66699 16.833 -17.834 20.5 -27.501s7.83398 -19.167 12.501 -28.5c2.66699 -6 7.33398 -12.5 14.001 -19.5s14.667 -13.333 24 -19s20.166 -10.5 32.499 -14.5s25.5 -6 39.5 -6c26.667 0 49.667 5 69 15s29 26.333 29 49c0 21.333 -7.5 37.166 -22.5 47.499
s-40.167 15.5 -75.5 15.5h-9c-2.66699 0 -6.5 -0.166992 -11.5 -0.5s-12 -1 -21 -2s-21.167 -2.16699 -36.5 -3.5v151c12.667 -5.33301 23.834 -9 33.501 -11s23.167 -3 40.5 -3c28 0 48 5.16699 60 15.5s18 21.5 18 33.5c0 15.333 -6.83301 29.833 -20.5 43.5
s-32.167 20.5 -55.5 20.5c-22.667 0 -45.5 -6.66699 -68.5 -20s-47.167 -36 -72.5 -68l-94 102c34 41.333 70.667 72.5 110 93.5s83 31.5 131 31.5zM783.999 514.004h129v-379h97v-127h-97v-151h-176v151h-278v92zM738.999 258.004l-100 -127h100v127zM130.999 -9.99609
l635 1376l178 -92l-633 -1370z" />
    <glyph glyph-name="questiondown" unicode="&#xbf;" 
d="M381 1139c-15.333 17.333 -27 34.001 -35 50.001s-12 32.667 -12 50c0 18.667 4 36.167 12 52.5s18.833 30.833 32.5 43.5s29.667 22.667 48 30s37.833 11 58.5 11s40.334 -3.66699 59.001 -11s35 -17.333 49 -30s25.167 -27.167 33.5 -43.5s12.5 -33.833 12.5 -52.5
c0 -19.333 -4.16699 -37.5 -12.5 -54.5s-19.5 -31.833 -33.5 -44.5s-30.333 -22.834 -49 -30.501s-38.334 -11.5 -59.001 -11.5c-18 0 -36 3.5 -54 10.5s-34.667 17.167 -50 30.5zM911 205.001c-24 -36.667 -51.3281 -69.4961 -81.9951 -98.4961s-63.667 -53.667 -99 -74
s-72.833 -36 -112.5 -47s-80.834 -16.5 -123.501 -16.5c-59.333 0 -112.5 9.83301 -159.5 29.5s-86.833 46.5 -119.5 80.5s-57.834 73.5 -75.501 118.5s-26.5 92.5 -26.5 142.5c0 44.667 6.33301 84 19 118s29 64 49 90s42.5 49.167 67.5 69.5l73.5 58.5
c15.333 12 27.5 24.333 36.5 37s15.667 26.334 20 41.001s7.16602 30.167 8.49902 46.5s2 34.166 2 53.499v111h203v-111c0 -28.667 -1 -54.834 -3 -78.501s-7.5 -47.167 -16.5 -70.5s-22.833 -47.833 -41.5 -73.5s-44.667 -55.167 -78 -88.5
c-41.333 -41.333 -70.166 -79 -86.499 -113s-24.5 -67.333 -24.5 -100c0 -24.667 4 -47.834 12 -69.501s19.167 -40.5 33.5 -56.5s31.166 -28.667 50.499 -38s40.666 -14 63.999 -14c24.667 0 48.667 4.66699 72 14s45.666 22.666 66.999 39.999s41.833 38.166 61.5 62.499
s38.167 51.5 55.5 81.5z" />
    <glyph glyph-name="Agrave" unicode="&#xc0;" 
d="M0 0l426 1298h133l467 -1298h-240l-116 330h-334l-100 -330h-236zM629 489l-133 424l-125 -424h258zM388 1671l314 -231l-56 -101l-368 129z" />
    <glyph glyph-name="Aacute" unicode="&#xc1;" 
d="M0 0l426 1298h133l467 -1298h-240l-116 330h-334l-100 -330h-236zM629 489l-133 424l-125 -424h258zM732 1468l-369 -129l-55 101l313 231z" />
    <glyph glyph-name="Acircumflex" unicode="&#xc2;" 
d="M0 0l426 1298h133l467 -1298h-240l-116 330h-334l-100 -330h-236zM629 489l-133 424l-125 -424h258zM197 1417l273 221h63l258 -217l-78 -92l-215 135l-231 -129z" />
    <glyph glyph-name="Atilde" unicode="&#xc3;" 
d="M0 0l426 1298h133l467 -1298h-240l-116 330h-334l-100 -330h-236zM629 489l-133 424l-125 -424h258zM166 1464c83.333 136.667 169.332 204.996 257.999 204.996c28.667 0 54.834 -7 78.501 -21s45.167 -30.333 64.5 -49l17 -17.5c6 -6.33301 12.5 -12.5 19.5 -18.5
s14.333 -11 22 -15s15.5 -6 23.5 -6c10 0 19.667 3.33301 29 10s18.5 15.334 27.5 26.001s18 23 27 37l27.5 44l112 -127l-60.5 -74c-18.333 -21.333 -35.833 -39.166 -52.5 -53.499s-33.167 -25.333 -49.5 -33s-33.833 -11.5 -52.5 -11.5c-25.333 0 -49 5.33301 -71 16
s-42.667 24.334 -62 41.001c-6 5.33301 -12.833 12.333 -20.5 21s-16 17.334 -25 26.001s-18.5 16 -28.5 22s-20 9 -30 9c-20.667 0 -39 -11.167 -55 -33.5s-35.333 -55.5 -58 -99.5z" />
    <glyph glyph-name="Adieresis" unicode="&#xc4;" 
d="M0 0l426 1298h133l467 -1298h-240l-116 330h-334l-100 -330h-236zM629 489l-133 424l-125 -424h258zM305 1663c20.667 0 39.833 -3.83301 57.5 -11.5s33 -17.667 46 -30s23 -26.5 30 -42.5s10.5 -32.333 10.5 -49c0 -18 -3.83301 -35 -11.5 -51s-18 -29.833 -31 -41.5
s-28.333 -21 -46 -28s-36.167 -10.5 -55.5 -10.5s-37.666 3.5 -54.999 10.5s-32.333 16.333 -45 28s-22.667 25.5 -30 41.5s-11 33 -11 51s3.66699 35 11 51s17.333 30.167 30 42.5s27.667 22 45 29s35.666 10.5 54.999 10.5zM681.999 1663
c21.333 0 40.667 -3.83301 58 -11.5s32.166 -17.834 44.499 -30.501s21.833 -27 28.5 -43s10 -32 10 -48c0 -18 -3.66699 -35 -11 -51s-17.333 -29.833 -30 -41.5s-27.667 -21 -45 -28s-35.666 -10.5 -54.999 -10.5s-37.666 3.33301 -54.999 10s-32.333 15.834 -45 27.501
s-22.667 25.5 -30 41.5s-11 33.333 -11 52s3.66699 36 11 52s17.333 30 30 42s27.667 21.5 45 28.5s35.666 10.5 54.999 10.5z" />
    <glyph glyph-name="Aring" unicode="&#xc5;" 
d="M489 1661c29.333 0 56.999 -5.33203 82.999 -15.999s48.833 -25.334 68.5 -44.001s35.334 -40.167 47.001 -64.5s17.5 -50.5 17.5 -78.5c0 -21.333 -3.5 -41.833 -10.5 -61.5s-16.5 -37.834 -28.5 -54.501s-26.333 -31.334 -43 -44.001s-34.667 -22.667 -54 -30
l457 -1268h-240l-116 330h-334l-100 -330h-236l416 1266c-20 7.33301 -38.333 17.333 -55 30s-31.167 27.334 -43.5 44.001s-21.833 35 -28.5 55s-10 41 -10 63c0 28 5.66699 54.167 17 78.5s26.5 45.833 45.5 64.5s41.167 33.334 66.5 44.001s52.333 16 81 16z
M628.999 489.001l-133 410l-125 -410h258zM425.999 1460c0 -21.333 6.33301 -39.333 19 -54s28.334 -22 47.001 -22c18 0 33.333 7.33301 46 22s19 32.667 19 54s-6.33301 39.666 -19 54.999s-28 23 -46 23c-18.667 0 -34.334 -7.66699 -47.001 -23s-19 -33.666 -19 -54.999
z" />
    <glyph glyph-name="AE" unicode="&#xc6;" 
d="M389 1276h627v-195h-322v-317h271v-201h-271v-366h318v-197h-531v326h-174l-90 -326h-221zM483 967l-125 -453h125v453z" />
    <glyph glyph-name="Ccedilla" unicode="&#xc7;" 
d="M629 -215c0 7.33301 -4.66309 14.6689 -13.9961 22.002s-22.666 11 -39.999 11h-100l21 151c-64 10 -122.833 30.833 -176.5 62.5s-99.667 75 -138 130s-68.333 121.5 -90 199.5s-32.5 168 -32.5 270c0 83.333 7.16699 158.166 21.5 224.499s34 124.5 59 174.5
s54.167 92.667 87.5 128s68.833 64.166 106.5 86.499s76.5 38.666 116.5 48.999s79 15.5 117 15.5c48 0 94 -7 138 -21s84.5 -33.833 121.5 -59.5s70 -56.334 99 -92.001s52.833 -75.167 71.5 -118.5l-206 -103c-6 2 -10 5 -12 9s-3.16699 8.83301 -3.5 14.5
s-0.833008 12.167 -1.5 19.5s-2.66699 15 -6 23c-19.333 44 -45.333 78.5 -78 103.5s-74.334 37.5 -125.001 37.5c-40.667 0 -77.5 -11.5 -110.5 -34.5s-61.167 -55.5 -84.5 -97.5s-41.333 -92.667 -54 -152s-19 -125 -19 -197c0 -70 6.83301 -134.5 20.5 -193.5
s32.834 -110.167 57.501 -153.5s54.334 -77.166 89.001 -101.499s72.667 -36.5 114 -36.5c49.333 0 92.666 15.167 129.999 45.5s71 71.833 101 124.5l174 -113c-41.333 -70 -89.5 -125 -144.5 -165s-114.833 -65.667 -179.5 -77l-4 -34c52 -5.33301 91.667 -21 119 -47
s41 -59 41 -99c0 -21.333 -5.33301 -42.833 -16 -64.5s-26.834 -41 -48.501 -58s-48.834 -30.833 -81.501 -41.5s-71.334 -16 -116.001 -16c-43.333 0 -86.833 7.16699 -130.5 21.5s-86.167 38.5 -127.5 72.5l76 129c20 -16.667 38.667 -30.5 56 -41.5
s34.333 -19.667 51 -26s33.167 -10.666 49.5 -12.999s33.166 -3.5 50.499 -3.5c19.333 0 32.666 4 39.999 12s11 15.667 11 23z" />
    <glyph glyph-name="Egrave" unicode="&#xc8;" 
d="M115 1276h831v-197h-608v-315h504v-201h-504v-366h604v-197h-827v1276zM388 1671l314 -231l-56 -101l-368 129z" />
    <glyph glyph-name="Eacute" unicode="&#xc9;" 
d="M115 1276h831v-197h-608v-315h504v-201h-504v-366h604v-197h-827v1276zM764 1468l-369 -129l-55 101l313 231z" />
    <glyph glyph-name="Ecircumflex" unicode="&#xca;" 
d="M115 1276h831v-197h-608v-315h504v-201h-504v-366h604v-197h-827v1276zM214 1417l273 221h63l258 -217l-78 -92l-215 135l-231 -129z" />
    <glyph glyph-name="Edieresis" unicode="&#xcb;" 
d="M115 1276h831v-197h-608v-315h504v-201h-504v-366h604v-197h-827v1276zM317 1663c20.667 0 39.833 -3.83301 57.5 -11.5s33 -17.667 46 -30s23 -26.5 30 -42.5s10.5 -32.333 10.5 -49c0 -18 -3.83301 -35 -11.5 -51s-18 -29.833 -31 -41.5s-28.333 -21 -46 -28
s-36.167 -10.5 -55.5 -10.5s-37.666 3.5 -54.999 10.5s-32.333 16.333 -45 28s-22.667 25.5 -30 41.5s-11 33 -11 51s3.66699 35 11 51s17.333 30.167 30 42.5s27.667 22 45 29s35.666 10.5 54.999 10.5zM693.999 1663c21.333 0 40.667 -3.83301 58 -11.5
s32.166 -17.834 44.499 -30.501s21.833 -27 28.5 -43s10 -32 10 -48c0 -18 -3.66699 -35 -11 -51s-17.333 -29.833 -30 -41.5s-27.667 -21 -45 -28s-35.666 -10.5 -54.999 -10.5s-37.666 3.33301 -54.999 10s-32.333 15.834 -45 27.501s-22.667 25.5 -30 41.5
s-11 33.333 -11 52s3.66699 36 11 52s17.333 30 30 42s27.667 21.5 45 28.5s35.666 10.5 54.999 10.5z" />
    <glyph glyph-name="Igrave" unicode="&#xcc;" 
d="M162 1276h712v-191h-247v-897h258v-188h-735v190h247v895h-235v191zM388 1671l314 -231l-56 -101l-368 129z" />
    <glyph glyph-name="Iacute" unicode="&#xcd;" 
d="M162 1276h712v-191h-247v-897h258v-188h-735v190h247v895h-235v191zM764 1468l-369 -129l-55 101l313 231z" />
    <glyph glyph-name="Icircumflex" unicode="&#xce;" 
d="M162 1276h712v-191h-247v-897h258v-188h-735v190h247v895h-235v191zM195 1417l273 221h63l258 -217l-78 -92l-215 135l-231 -129z" />
    <glyph glyph-name="Idieresis" unicode="&#xcf;" 
d="M162 1276h712v-191h-247v-897h258v-188h-735v190h247v895h-235v191zM311 1663c20.667 0 39.833 -3.83301 57.5 -11.5s33 -17.667 46 -30s23 -26.5 30 -42.5s10.5 -32.333 10.5 -49c0 -18 -3.83301 -35 -11.5 -51s-18 -29.833 -31 -41.5s-28.333 -21 -46 -28
s-36.167 -10.5 -55.5 -10.5s-37.666 3.5 -54.999 10.5s-32.333 16.333 -45 28s-22.667 25.5 -30 41.5s-11 33 -11 51s3.66699 35 11 51s17.333 30.167 30 42.5s27.667 22 45 29s35.666 10.5 54.999 10.5zM687.999 1663c21.333 0 40.667 -3.83301 58 -11.5
s32.166 -17.834 44.499 -30.501s21.833 -27 28.5 -43s10 -32 10 -48c0 -18 -3.66699 -35 -11 -51s-17.333 -29.833 -30 -41.5s-27.667 -21 -45 -28s-35.666 -10.5 -54.999 -10.5s-37.666 3.33301 -54.999 10s-32.333 15.834 -45 27.501s-22.667 25.5 -30 41.5
s-11 33.333 -11 52s3.66699 36 11 52s17.333 30 30 42s27.667 21.5 45 28.5s35.666 10.5 54.999 10.5z" />
    <glyph glyph-name="Eth" unicode="&#xd0;" 
d="M90 580l-79.999 -0.000976562v188h80v508h330c56.667 0 106.667 -4 150 -12s81.666 -19.5 114.999 -34.5s62.833 -33.5 88.5 -55.5s49.167 -47.333 70.5 -76c43.333 -58.667 76 -127.167 98 -205.5s33 -166.166 33 -263.499c0 -96.667 -10.833 -183.834 -32.5 -261.501
s-56 -143.667 -103 -198s-107.167 -96.166 -180.5 -125.499s-161.333 -44 -264 -44h-305v580zM313.001 1085l-0.000976562 -317h193v-188h-193v-400h78c120.667 0 209.834 38.167 267.501 114.5s86.5 185.833 86.5 328.5c0 72 -6.16699 136.5 -18.5 193.5
s-32 105.5 -59 145.5s-61.5 70.5 -103.5 91.5s-92.667 31.5 -152 31.5h-99z" />
    <glyph glyph-name="Ntilde" unicode="&#xd1;" 
d="M958 0l-253 0.000976562l-433 965v-965h-206v1276h280l406 -914v914h221c2.66699 -2.66699 4 -6 4 -10c0 -5.33301 -2.5 -11.833 -7.5 -19.5s-8.83301 -21.834 -11.5 -42.501v-1204zM176 1464c83.333 136.667 169.332 204.996 257.999 204.996
c28.667 0 54.834 -7 78.501 -21s45.167 -30.333 64.5 -49l17 -17.5c6 -6.33301 12.5 -12.5 19.5 -18.5s14.333 -11 22 -15s15.5 -6 23.5 -6c10 0 19.667 3.33301 29 10s18.5 15.334 27.5 26.001s18 23 27 37l27.5 44l112 -127l-60.5 -74
c-18.333 -21.333 -35.833 -39.166 -52.5 -53.499s-33.167 -25.333 -49.5 -33s-33.833 -11.5 -52.5 -11.5c-25.333 0 -49 5.33301 -71 16s-42.667 24.334 -62 41.001c-6 5.33301 -12.833 12.333 -20.5 21s-16 17.334 -25 26.001s-18.5 16 -28.5 22s-20 9 -30 9
c-20.667 0 -39 -11.167 -55 -33.5s-35.333 -55.5 -58 -99.5z" />
    <glyph glyph-name="Ograve" unicode="&#xd2;" 
d="M514 -37c-75.333 0 -142.667 16.833 -202 50.5s-109.5 80.667 -150.5 141s-72.333 132 -94 215s-32.5 173.5 -32.5 271.5c0 98.667 11.167 189 33.5 271s54.333 152.333 96 211s92.167 104.334 151.5 137.001s126 49 200 49c64 0 124.667 -13.667 182 -41
s107.5 -68.666 150.5 -123.999s77.167 -125 102.5 -209s38 -182.667 38 -296c0 -82 -6.33301 -155.667 -19 -221s-30 -123 -52 -173s-48 -92.833 -78 -128.5s-62.667 -64.834 -98 -87.501s-72.333 -39.334 -111 -50.001s-77.667 -16 -117 -16zM271.999 653
c0 -78 6.00195 -146.995 18.002 -206.995s28.833 -110.333 50.5 -151s47.334 -71.334 77.001 -92.001s62.5 -31 98.5 -31c30.667 0 60.167 7.66699 88.5 23s53.166 41.333 74.499 78s38.5 85.167 51.5 145.5s19.5 135.166 19.5 224.499c0 85.333 -7 157.333 -21 216
s-32 106.167 -54 142.5s-46.833 62.5 -74.5 78.5s-55.167 24 -82.5 24c-32.667 0 -63.834 -7.33301 -93.501 -22s-55.834 -39.334 -78.501 -74.001s-40.667 -80.834 -54 -138.501s-20 -129.834 -20 -216.501zM388.001 1671l314 -231l-56 -101l-368 129z" />
    <glyph glyph-name="Oacute" unicode="&#xd3;" 
d="M514 -37c-75.333 0 -142.667 16.833 -202 50.5s-109.5 80.667 -150.5 141s-72.333 132 -94 215s-32.5 173.5 -32.5 271.5c0 98.667 11.167 189 33.5 271s54.333 152.333 96 211s92.167 104.334 151.5 137.001s126 49 200 49c64 0 124.667 -13.667 182 -41
s107.5 -68.666 150.5 -123.999s77.167 -125 102.5 -209s38 -182.667 38 -296c0 -82 -6.33301 -155.667 -19 -221s-30 -123 -52 -173s-48 -92.833 -78 -128.5s-62.667 -64.834 -98 -87.501s-72.333 -39.334 -111 -50.001s-77.667 -16 -117 -16zM271.999 653
c0 -78 6.00195 -146.995 18.002 -206.995s28.833 -110.333 50.5 -151s47.334 -71.334 77.001 -92.001s62.5 -31 98.5 -31c30.667 0 60.167 7.66699 88.5 23s53.166 41.333 74.499 78s38.5 85.167 51.5 145.5s19.5 135.166 19.5 224.499c0 85.333 -7 157.333 -21 216
s-32 106.167 -54 142.5s-46.833 62.5 -74.5 78.5s-55.167 24 -82.5 24c-32.667 0 -63.834 -7.33301 -93.501 -22s-55.834 -39.334 -78.501 -74.001s-40.667 -80.834 -54 -138.501s-20 -129.834 -20 -216.501zM764.001 1468l-369 -129l-55 101l313 231z" />
    <glyph glyph-name="Ocircumflex" unicode="&#xd4;" 
d="M514 -37c-75.333 0 -142.667 16.833 -202 50.5s-109.5 80.667 -150.5 141s-72.333 132 -94 215s-32.5 173.5 -32.5 271.5c0 98.667 11.167 189 33.5 271s54.333 152.333 96 211s92.167 104.334 151.5 137.001s126 49 200 49c64 0 124.667 -13.667 182 -41
s107.5 -68.666 150.5 -123.999s77.167 -125 102.5 -209s38 -182.667 38 -296c0 -82 -6.33301 -155.667 -19 -221s-30 -123 -52 -173s-48 -92.833 -78 -128.5s-62.667 -64.834 -98 -87.501s-72.333 -39.334 -111 -50.001s-77.667 -16 -117 -16zM271.999 653
c0 -78 6.00195 -146.995 18.002 -206.995s28.833 -110.333 50.5 -151s47.334 -71.334 77.001 -92.001s62.5 -31 98.5 -31c30.667 0 60.167 7.66699 88.5 23s53.166 41.333 74.499 78s38.5 85.167 51.5 145.5s19.5 135.166 19.5 224.499c0 85.333 -7 157.333 -21 216
s-32 106.167 -54 142.5s-46.833 62.5 -74.5 78.5s-55.167 24 -82.5 24c-32.667 0 -63.834 -7.33301 -93.501 -22s-55.834 -39.334 -78.501 -74.001s-40.667 -80.834 -54 -138.501s-20 -129.834 -20 -216.501zM219.001 1417l273 221h63l258 -217l-78 -92l-215 135l-231 -129z
" />
    <glyph glyph-name="Otilde" unicode="&#xd5;" 
d="M514 -37c-75.333 0 -142.667 16.833 -202 50.5s-109.5 80.667 -150.5 141s-72.333 132 -94 215s-32.5 173.5 -32.5 271.5c0 98.667 11.167 189 33.5 271s54.333 152.333 96 211s92.167 104.334 151.5 137.001s126 49 200 49c64 0 124.667 -13.667 182 -41
s107.5 -68.666 150.5 -123.999s77.167 -125 102.5 -209s38 -182.667 38 -296c0 -82 -6.33301 -155.667 -19 -221s-30 -123 -52 -173s-48 -92.833 -78 -128.5s-62.667 -64.834 -98 -87.501s-72.333 -39.334 -111 -50.001s-77.667 -16 -117 -16zM271.999 653
c0 -78 6.00195 -146.995 18.002 -206.995s28.833 -110.333 50.5 -151s47.334 -71.334 77.001 -92.001s62.5 -31 98.5 -31c30.667 0 60.167 7.66699 88.5 23s53.166 41.333 74.499 78s38.5 85.167 51.5 145.5s19.5 135.166 19.5 224.499c0 85.333 -7 157.333 -21 216
s-32 106.167 -54 142.5s-46.833 62.5 -74.5 78.5s-55.167 24 -82.5 24c-32.667 0 -63.834 -7.33301 -93.501 -22s-55.834 -39.334 -78.501 -74.001s-40.667 -80.834 -54 -138.501s-20 -129.834 -20 -216.501zM176.001 1464c83.333 136.667 169.332 204.996 257.999 204.996
c28.667 0 54.834 -7 78.501 -21s45.167 -30.333 64.5 -49l17 -17.5c6 -6.33301 12.5 -12.5 19.5 -18.5s14.333 -11 22 -15s15.5 -6 23.5 -6c10 0 19.667 3.33301 29 10s18.5 15.334 27.5 26.001s18 23 27 37l27.5 44l112 -127l-60.5 -74
c-18.333 -21.333 -35.833 -39.166 -52.5 -53.499s-33.167 -25.333 -49.5 -33s-33.833 -11.5 -52.5 -11.5c-25.333 0 -49 5.33301 -71 16s-42.667 24.334 -62 41.001c-6 5.33301 -12.833 12.333 -20.5 21s-16 17.334 -25 26.001s-18.5 16 -28.5 22s-20 9 -30 9
c-20.667 0 -39 -11.167 -55 -33.5s-35.333 -55.5 -58 -99.5z" />
    <glyph glyph-name="Odieresis" unicode="&#xd6;" 
d="M514 -37c-75.333 0 -142.667 16.833 -202 50.5s-109.5 80.667 -150.5 141s-72.333 132 -94 215s-32.5 173.5 -32.5 271.5c0 98.667 11.167 189 33.5 271s54.333 152.333 96 211s92.167 104.334 151.5 137.001s126 49 200 49c64 0 124.667 -13.667 182 -41
s107.5 -68.666 150.5 -123.999s77.167 -125 102.5 -209s38 -182.667 38 -296c0 -82 -6.33301 -155.667 -19 -221s-30 -123 -52 -173s-48 -92.833 -78 -128.5s-62.667 -64.834 -98 -87.501s-72.333 -39.334 -111 -50.001s-77.667 -16 -117 -16zM271.999 653
c0 -78 6.00195 -146.995 18.002 -206.995s28.833 -110.333 50.5 -151s47.334 -71.334 77.001 -92.001s62.5 -31 98.5 -31c30.667 0 60.167 7.66699 88.5 23s53.166 41.333 74.499 78s38.5 85.167 51.5 145.5s19.5 135.166 19.5 224.499c0 85.333 -7 157.333 -21 216
s-32 106.167 -54 142.5s-46.833 62.5 -74.5 78.5s-55.167 24 -82.5 24c-32.667 0 -63.834 -7.33301 -93.501 -22s-55.834 -39.334 -78.501 -74.001s-40.667 -80.834 -54 -138.501s-20 -129.834 -20 -216.501zM317.001 1663c20.667 0 39.833 -3.83301 57.5 -11.5
s33 -17.667 46 -30s23 -26.5 30 -42.5s10.5 -32.333 10.5 -49c0 -18 -3.83301 -35 -11.5 -51s-18 -29.833 -31 -41.5s-28.333 -21 -46 -28s-36.167 -10.5 -55.5 -10.5s-37.666 3.5 -54.999 10.5s-32.333 16.333 -45 28s-22.667 25.5 -30 41.5s-11 33 -11 51
s3.66699 35 11 51s17.333 30.167 30 42.5s27.667 22 45 29s35.666 10.5 54.999 10.5zM694 1663c21.333 0 40.667 -3.83301 58 -11.5s32.166 -17.834 44.499 -30.501s21.833 -27 28.5 -43s10 -32 10 -48c0 -18 -3.66699 -35 -11 -51s-17.333 -29.833 -30 -41.5
s-27.667 -21 -45 -28s-35.666 -10.5 -54.999 -10.5s-37.666 3.33301 -54.999 10s-32.333 15.834 -45 27.501s-22.667 25.5 -30 41.5s-11 33.333 -11 52s3.66699 36 11 52s17.333 30 30 42s27.667 21.5 45 28.5s35.666 10.5 54.999 10.5z" />
    <glyph glyph-name="multiply" unicode="&#xd7;" 
d="M758 1083l153 -139l-243 -254l237 -252l-147 -149l-238 252l-235 -242l-144 143l238 246l-238 252l150 145l233 -245z" />
    <glyph glyph-name="Oslash" unicode="&#xd8;" 
d="M514 -37c-39.333 0 -76.1689 4.83301 -110.502 14.5s-67.166 22.5 -98.499 38.5l-84 -157l-180 94l113 213c-39.333 60 -69 130.333 -89 211s-30 168.667 -30 264c0 98.667 11.167 189 33.5 271s54.333 152.333 96 211s92.167 104.334 151.5 137.001s126 49 200 49
c38 0 74.833 -5.16699 110.5 -15.5s69.834 -25.166 102.501 -44.499l78 148l188 -97l-112 -208c32.667 -54.667 58.5 -119.667 77.5 -195s28.5 -161.333 28.5 -258c0 -82 -6.33301 -155.667 -19 -221s-30 -123 -52 -173s-48 -92.833 -78 -128.5s-62.667 -64.834 -98 -87.501
s-72.333 -39.334 -111 -50.001s-77.667 -16 -117 -16zM626.997 1059c-34 30 -70.3311 45.0029 -108.998 45.0029c-32.667 0 -63.834 -7.33301 -93.501 -22s-55.834 -39.334 -78.501 -74.001s-40.667 -80.834 -54 -138.501s-20 -129.834 -20 -216.501
c0 -43.333 2 -83.333 6 -120s9 -71 15 -103zM736.999 819.003l-326.999 -609.997c15.333 -12.667 32 -22 50 -28s36.667 -9 56 -9c30.667 0 60.167 7.66699 88.5 23s53.166 41.333 74.499 78s38.5 85.167 51.5 145.5s19.5 135.166 19.5 224.499
c0 33.333 -1.16699 64.666 -3.5 93.999s-5.5 56.666 -9.5 81.999z" />
    <glyph glyph-name="Ugrave" unicode="&#xd9;" 
d="M76 1276l243 0.00292969c2.66699 -2 4.16699 -3.66699 4.5 -5s0.5 -3 0.5 -5c0 -2.66699 -0.833008 -5.5 -2.5 -8.5s-3.5 -6.83301 -5.5 -11.5s-4.16699 -10.334 -6.5 -17.001s-3.83301 -15 -4.5 -25v-755c0 -44 3.33301 -83.833 10 -119.5s18 -65.834 34 -90.501
s37.333 -43.667 64 -57s59.667 -20 99 -20c40.667 0 74.5 6.83301 101.5 20.5s48.667 33.167 65 58.5s27.833 56 34.5 92s10 76.667 10 122v821h225v-819c0 -83.333 -10.333 -155.5 -31 -216.5s-50 -111.5 -88 -151.5s-84 -69.667 -138 -89s-114.333 -29 -181 -29
c-71.333 0 -134 11 -188 33s-99.333 53.667 -136 95s-64.167 91.666 -82.5 150.999s-27.5 126.333 -27.5 201v825zM386 1671l314 -231l-56 -101l-368 129z" />
    <glyph glyph-name="Uacute" unicode="&#xda;" 
d="M76 1276l243 0.00292969c2.66699 -2 4.16699 -3.66699 4.5 -5s0.5 -3 0.5 -5c0 -2.66699 -0.833008 -5.5 -2.5 -8.5s-3.5 -6.83301 -5.5 -11.5s-4.16699 -10.334 -6.5 -17.001s-3.83301 -15 -4.5 -25v-755c0 -44 3.33301 -83.833 10 -119.5s18 -65.834 34 -90.501
s37.333 -43.667 64 -57s59.667 -20 99 -20c40.667 0 74.5 6.83301 101.5 20.5s48.667 33.167 65 58.5s27.833 56 34.5 92s10 76.667 10 122v821h225v-819c0 -83.333 -10.333 -155.5 -31 -216.5s-50 -111.5 -88 -151.5s-84 -69.667 -138 -89s-114.333 -29 -181 -29
c-71.333 0 -134 11 -188 33s-99.333 53.667 -136 95s-64.167 91.666 -82.5 150.999s-27.5 126.333 -27.5 201v825zM764 1468l-369 -129l-55 101l313 231z" />
    <glyph glyph-name="Ucircumflex" unicode="&#xdb;" 
d="M76 1276l243 0.00292969c2.66699 -2 4.16699 -3.66699 4.5 -5s0.5 -3 0.5 -5c0 -2.66699 -0.833008 -5.5 -2.5 -8.5s-3.5 -6.83301 -5.5 -11.5s-4.16699 -10.334 -6.5 -17.001s-3.83301 -15 -4.5 -25v-755c0 -44 3.33301 -83.833 10 -119.5s18 -65.834 34 -90.501
s37.333 -43.667 64 -57s59.667 -20 99 -20c40.667 0 74.5 6.83301 101.5 20.5s48.667 33.167 65 58.5s27.833 56 34.5 92s10 76.667 10 122v821h225v-819c0 -83.333 -10.333 -155.5 -31 -216.5s-50 -111.5 -88 -151.5s-84 -69.667 -138 -89s-114.333 -29 -181 -29
c-71.333 0 -134 11 -188 33s-99.333 53.667 -136 95s-64.167 91.666 -82.5 150.999s-27.5 126.333 -27.5 201v825zM219 1417l273 221h63l258 -217l-78 -92l-215 135l-231 -129z" />
    <glyph glyph-name="Udieresis" unicode="&#xdc;" 
d="M76 1276l243 0.00292969c2.66699 -2 4.16699 -3.66699 4.5 -5s0.5 -3 0.5 -5c0 -2.66699 -0.833008 -5.5 -2.5 -8.5s-3.5 -6.83301 -5.5 -11.5s-4.16699 -10.334 -6.5 -17.001s-3.83301 -15 -4.5 -25v-755c0 -44 3.33301 -83.833 10 -119.5s18 -65.834 34 -90.501
s37.333 -43.667 64 -57s59.667 -20 99 -20c40.667 0 74.5 6.83301 101.5 20.5s48.667 33.167 65 58.5s27.833 56 34.5 92s10 76.667 10 122v821h225v-819c0 -83.333 -10.333 -155.5 -31 -216.5s-50 -111.5 -88 -151.5s-84 -69.667 -138 -89s-114.333 -29 -181 -29
c-71.333 0 -134 11 -188 33s-99.333 53.667 -136 95s-64.167 91.666 -82.5 150.999s-27.5 126.333 -27.5 201v825zM334 1663c20.667 0 39.833 -3.83301 57.5 -11.5s33 -17.667 46 -30s23 -26.5 30 -42.5s10.5 -32.333 10.5 -49c0 -18 -3.83301 -35 -11.5 -51
s-18 -29.833 -31 -41.5s-28.333 -21 -46 -28s-36.167 -10.5 -55.5 -10.5s-37.666 3.5 -54.999 10.5s-32.333 16.333 -45 28s-22.667 25.5 -30 41.5s-11 33 -11 51s3.66699 35 11 51s17.333 30.167 30 42.5s27.667 22 45 29s35.666 10.5 54.999 10.5zM710.999 1663
c21.333 0 40.667 -3.83301 58 -11.5s32.166 -17.834 44.499 -30.501s21.833 -27 28.5 -43s10 -32 10 -48c0 -18 -3.66699 -35 -11 -51s-17.333 -29.833 -30 -41.5s-27.667 -21 -45 -28s-35.666 -10.5 -54.999 -10.5s-37.666 3.33301 -54.999 10s-32.333 15.834 -45 27.501
s-22.667 25.5 -30 41.5s-11 33.333 -11 52s3.66699 36 11 52s17.333 30 30 42s27.667 21.5 45 28.5s35.666 10.5 54.999 10.5z" />
    <glyph glyph-name="Yacute" unicode="&#xdd;" 
d="M18 1276h256l263 -516l233 516h248l-365 -774v-502h-241v504zM764 1468l-369 -129l-55 101l313 231z" />
    <glyph glyph-name="Thorn" unicode="&#xde;" 
d="M102 1276l250 0.000976562c2.66699 -2.66699 4 -6 4 -10c0 -2.66699 -0.833008 -5.5 -2.5 -8.5s-3.5 -6.83301 -5.5 -11.5s-4 -10.334 -6 -17.001s-3.33301 -15 -4 -25v-147h197c76 0 141 -10.167 195 -30.5s98.5 -48 133.5 -83s60.667 -75.667 77 -122
s24.5 -95.5 24.5 -147.5s-8 -100.833 -24 -146.5s-41 -85.5 -75 -119.5s-77.5 -61 -130.5 -81s-116.5 -30 -190.5 -30h-209v-297h-234v1276zM336 492.001l192.002 0.00292969c35.333 0 65.666 4.5 90.999 13.5s46.166 21.333 62.499 37s28.333 34.167 36 55.5
s11.5 44.666 11.5 69.999c0 24 -4 47.167 -12 69.5s-20.167 42.166 -36.5 59.499s-37 31.166 -62 41.499s-54.5 15.5 -88.5 15.5h-192z" />
    <glyph glyph-name="germandbls" unicode="&#xdf;" 
d="M78 0l-0.000976562 853.996c0 84 8.83301 158.667 26.5 224s43.5 120.5 77.5 165.5s75.833 79.333 125.5 103s106.167 35.5 169.5 35.5c58.667 0 112 -11 160 -33s88.667 -51.167 122 -87.5s59.166 -77.666 77.499 -123.999s27.5 -93.833 27.5 -142.5
c0 -26.667 -3.66699 -52.667 -11 -78s-17.333 -49.166 -30 -71.499s-27.5 -42.666 -44.5 -60.999s-34.833 -33.5 -53.5 -45.5c34 -14 65 -32.5 93 -55.5s51.667 -49.833 71 -80.5s34.333 -65 45 -103s16 -78.333 16 -121c0 -61.333 -8.33301 -117.166 -25 -167.499
s-41.5 -93.5 -74.5 -129.5s-74.167 -63.833 -123.5 -83.5s-106.666 -29.5 -171.999 -29.5c-38 0 -73.667 5.5 -107 16.5s-68.666 26.833 -105.999 47.5l115 180c34.667 -32.667 70 -49 106 -49c24 0 46.167 4.83301 66.5 14.5s38 23.334 53 41.001s26.833 38.5 35.5 62.5
s13 50.667 13 80c0 38.667 -5.33301 74.334 -16 107.001s-26.5 60.667 -47.5 84s-47.167 41.5 -78.5 54.5s-68 19.5 -110 19.5h-102v182h115c22 0 42.167 3.83301 60.5 11.5s34.333 19.667 48 36s24.167 37.166 31.5 62.499s11 55.666 11 90.999c0 24 -3.5 47.333 -10.5 70
s-17.5 42.667 -31.5 60s-31.667 31.333 -53 42s-46.333 16 -75 16c-30 0 -56 -8.33301 -78 -25s-40.167 -40 -54.5 -70s-24.833 -65.833 -31.5 -107.5s-10 -87.5 -10 -137.5v-858h-221z" />
    <glyph glyph-name="agrave" unicode="&#xe0;" 
d="M154 821c98.667 104 219.332 155.998 361.999 155.998c60.667 0 115 -7.66699 163 -23s88.667 -39.166 122 -71.499s59 -73.333 77 -123s27 -108.834 27 -177.501v-582h-219v86c-36 -34 -78.833 -61 -128.5 -81s-99.5 -30 -149.5 -30c-56 0 -104.5 7.5 -145.5 22.5
s-74.833 35.167 -101.5 60.5s-46.5 55 -59.5 89s-19.5 69.667 -19.5 107c0 49.333 10.5 94.5 31.5 135.5s51.833 76.333 92.5 106s90.834 52.834 150.501 69.501s128.5 25 206.5 25h121c-1.33301 72.667 -16 125.334 -44 158.001s-72 49 -132 49
c-78 0 -157.333 -42.333 -238 -127zM605.998 417.998c-60 1.33301 -109.334 -2.16797 -148.001 -10.501s-69 -19.833 -91 -34.5s-37.167 -31.5 -45.5 -50.5s-12.5 -37.833 -12.5 -56.5c0 -16 3.66699 -31 11 -45s17.333 -26.167 30 -36.5s27.5 -18.666 44.5 -24.999
s35.167 -9.5 54.5 -9.5c31.333 0 59.5 5.5 84.5 16.5s46.833 24.167 65.5 39.5s34.334 31.333 47.001 48s22 31 28 43c5.33301 10 9.33301 24.833 12 44.5s4 44.5 4 74.5zM685.997 1126l-115 -67l-215 289l166 114z" />
    <glyph glyph-name="aacute" unicode="&#xe1;" 
d="M154 821c98.667 104 219.332 155.998 361.999 155.998c60.667 0 115 -7.66699 163 -23s88.667 -39.166 122 -71.499s59 -73.333 77 -123s27 -108.834 27 -177.501v-582h-219v86c-36 -34 -78.833 -61 -128.5 -81s-99.5 -30 -149.5 -30c-56 0 -104.5 7.5 -145.5 22.5
s-74.833 35.167 -101.5 60.5s-46.5 55 -59.5 89s-19.5 69.667 -19.5 107c0 49.333 10.5 94.5 31.5 135.5s51.833 76.333 92.5 106s90.834 52.834 150.501 69.501s128.5 25 206.5 25h121c-1.33301 72.667 -16 125.334 -44 158.001s-72 49 -132 49
c-78 0 -157.333 -42.333 -238 -127zM605.998 417.998c-60 1.33301 -109.334 -2.16797 -148.001 -10.501s-69 -19.833 -91 -34.5s-37.167 -31.5 -45.5 -50.5s-12.5 -37.833 -12.5 -56.5c0 -16 3.66699 -31 11 -45s17.333 -26.167 30 -36.5s27.5 -18.666 44.5 -24.999
s35.167 -9.5 54.5 -9.5c31.333 0 59.5 5.5 84.5 16.5s46.833 24.167 65.5 39.5s34.334 31.333 47.001 48s22 31 28 43c5.33301 10 9.33301 24.833 12 44.5s4 44.5 4 74.5zM570.997 1462l166 -114l-215 -289l-114 67z" />
    <glyph glyph-name="acircumflex" unicode="&#xe2;" 
d="M154 821c98.667 104 219.332 155.998 361.999 155.998c60.667 0 115 -7.66699 163 -23s88.667 -39.166 122 -71.499s59 -73.333 77 -123s27 -108.834 27 -177.501v-582h-219v86c-36 -34 -78.833 -61 -128.5 -81s-99.5 -30 -149.5 -30c-56 0 -104.5 7.5 -145.5 22.5
s-74.833 35.167 -101.5 60.5s-46.5 55 -59.5 89s-19.5 69.667 -19.5 107c0 49.333 10.5 94.5 31.5 135.5s51.833 76.333 92.5 106s90.834 52.834 150.501 69.501s128.5 25 206.5 25h121c-1.33301 72.667 -16 125.334 -44 158.001s-72 49 -132 49
c-78 0 -157.333 -42.333 -238 -127zM605.998 417.998c-60 1.33301 -109.334 -2.16797 -148.001 -10.501s-69 -19.833 -91 -34.5s-37.167 -31.5 -45.5 -50.5s-12.5 -37.833 -12.5 -56.5c0 -16 3.66699 -31 11 -45s17.333 -26.167 30 -36.5s27.5 -18.666 44.5 -24.999
s35.167 -9.5 54.5 -9.5c31.333 0 59.5 5.5 84.5 16.5s46.833 24.167 65.5 39.5s34.334 31.333 47.001 48s22 31 28 43c5.33301 10 9.33301 24.833 12 44.5s4 44.5 4 74.5zM267.997 1130l235 297h66l236 -299l-119 -88l-156 181l-164 -179z" />
    <glyph glyph-name="atilde" unicode="&#xe3;" 
d="M154 821c98.667 104 219.332 155.998 361.999 155.998c60.667 0 115 -7.66699 163 -23s88.667 -39.166 122 -71.499s59 -73.333 77 -123s27 -108.834 27 -177.501v-582h-219v86c-36 -34 -78.833 -61 -128.5 -81s-99.5 -30 -149.5 -30c-56 0 -104.5 7.5 -145.5 22.5
s-74.833 35.167 -101.5 60.5s-46.5 55 -59.5 89s-19.5 69.667 -19.5 107c0 49.333 10.5 94.5 31.5 135.5s51.833 76.333 92.5 106s90.834 52.834 150.501 69.501s128.5 25 206.5 25h121c-1.33301 72.667 -16 125.334 -44 158.001s-72 49 -132 49
c-78 0 -157.333 -42.333 -238 -127zM605.998 417.998c-60 1.33301 -109.334 -2.16797 -148.001 -10.501s-69 -19.833 -91 -34.5s-37.167 -31.5 -45.5 -50.5s-12.5 -37.833 -12.5 -56.5c0 -16 3.66699 -31 11 -45s17.333 -26.167 30 -36.5s27.5 -18.666 44.5 -24.999
s35.167 -9.5 54.5 -9.5c31.333 0 59.5 5.5 84.5 16.5s46.833 24.167 65.5 39.5s34.334 31.333 47.001 48s22 31 28 43c5.33301 10 9.33301 24.833 12 44.5s4 44.5 4 74.5zM193.997 1217c83.333 136 169.333 204.001 258 204.001c29.333 0 55.833 -6.83301 79.5 -20.5
s45.167 -29.834 64.5 -48.501l16.5 -18c6.33301 -6.66699 12.833 -13 19.5 -19s13.834 -11 21.501 -15s15.5 -6 23.5 -6c10 0 19.667 3.33301 29 10s18.5 15.5 27.5 26.5s18 23.5 27 37.5l27.5 43l113 -127l-60.5 -73c-18.333 -21.333 -35.833 -39.333 -52.5 -54
s-33.334 -25.834 -50.001 -33.501s-34 -11.5 -52 -11.5c-26 0 -49.833 5.5 -71.5 16.5s-42.167 24.5 -61.5 40.5c-6 5.33301 -13 12.333 -21 21s-16.5 17.334 -25.5 26.001s-18.5 16 -28.5 22s-20 9 -30 9c-20.667 0 -39 -11.167 -55 -33.5s-35.333 -55.5 -58 -99.5z" />
    <glyph glyph-name="adieresis" unicode="&#xe4;" 
d="M154 821c98.667 104 219.332 155.998 361.999 155.998c60.667 0 115 -7.66699 163 -23s88.667 -39.166 122 -71.499s59 -73.333 77 -123s27 -108.834 27 -177.501v-582h-219v86c-36 -34 -78.833 -61 -128.5 -81s-99.5 -30 -149.5 -30c-56 0 -104.5 7.5 -145.5 22.5
s-74.833 35.167 -101.5 60.5s-46.5 55 -59.5 89s-19.5 69.667 -19.5 107c0 49.333 10.5 94.5 31.5 135.5s51.833 76.333 92.5 106s90.834 52.834 150.501 69.501s128.5 25 206.5 25h121c-1.33301 72.667 -16 125.334 -44 158.001s-72 49 -132 49
c-78 0 -157.333 -42.333 -238 -127zM605.998 417.998c-60 1.33301 -109.334 -2.16797 -148.001 -10.501s-69 -19.833 -91 -34.5s-37.167 -31.5 -45.5 -50.5s-12.5 -37.833 -12.5 -56.5c0 -16 3.66699 -31 11 -45s17.333 -26.167 30 -36.5s27.5 -18.666 44.5 -24.999
s35.167 -9.5 54.5 -9.5c31.333 0 59.5 5.5 84.5 16.5s46.833 24.167 65.5 39.5s34.334 31.333 47.001 48s22 31 28 43c5.33301 10 9.33301 24.833 12 44.5s4 44.5 4 74.5zM350.997 1386c18 0 35.5 -3.16699 52.5 -9.5s32.167 -15.333 45.5 -27s24.166 -25.667 32.499 -42
s12.5 -34.5 12.5 -54.5c0 -18 -3.83301 -34.833 -11.5 -50.5s-18 -29.5 -31 -41.5s-28.167 -21.5 -45.5 -28.5s-35.666 -10.5 -54.999 -10.5s-37.666 3.5 -54.999 10.5s-32.5 16.5 -45.5 28.5s-23.167 25.833 -30.5 41.5s-11 32.5 -11 50.5s3.66699 35 11 51
s17.5 30.167 30.5 42.5s28.167 22 45.5 29s35.666 10.5 54.999 10.5zM726.997 1386c17.333 0 34.5 -3.16699 51.5 -9.5s32.167 -15.333 45.5 -27s24.166 -25.667 32.499 -42s12.5 -34.5 12.5 -54.5c0 -18 -3.66699 -34.833 -11 -50.5s-17.5 -29.5 -30.5 -41.5
s-28.167 -21.5 -45.5 -28.5s-35.666 -10.5 -54.999 -10.5s-37.5 3.33301 -54.5 10s-32 16 -45 28s-23.167 26 -30.5 42s-11 33 -11 51c0 18.667 3.66699 36 11 52s17.5 30 30.5 42s28 21.5 45 28.5s35.167 10.5 54.5 10.5z" />
    <glyph glyph-name="aring" unicode="&#xe5;" 
d="M154 821c98.667 104 219.332 155.998 361.999 155.998c60.667 0 115 -7.66699 163 -23s88.667 -39.166 122 -71.499s59 -73.333 77 -123s27 -108.834 27 -177.501v-582h-219v86c-36 -34 -78.833 -61 -128.5 -81s-99.5 -30 -149.5 -30c-56 0 -104.5 7.5 -145.5 22.5
s-74.833 35.167 -101.5 60.5s-46.5 55 -59.5 89s-19.5 69.667 -19.5 107c0 49.333 10.5 94.5 31.5 135.5s51.833 76.333 92.5 106s90.834 52.834 150.501 69.501s128.5 25 206.5 25h121c-1.33301 72.667 -16 125.334 -44 158.001s-72 49 -132 49
c-78 0 -157.333 -42.333 -238 -127zM605.998 417.998c-60 1.33301 -109.334 -2.16797 -148.001 -10.501s-69 -19.833 -91 -34.5s-37.167 -31.5 -45.5 -50.5s-12.5 -37.833 -12.5 -56.5c0 -16 3.66699 -31 11 -45s17.333 -26.167 30 -36.5s27.5 -18.666 44.5 -24.999
s35.167 -9.5 54.5 -9.5c31.333 0 59.5 5.5 84.5 16.5s46.833 24.167 65.5 39.5s34.334 31.333 47.001 48s22 31 28 43c5.33301 10 9.33301 24.833 12 44.5s4 44.5 4 74.5zM509.997 1456c29.333 0 57 -5.33301 83 -16s48.833 -25.334 68.5 -44.001s35.167 -40.167 46.5 -64.5
s17 -50.5 17 -78.5s-5.66699 -54.333 -17 -79s-26.833 -46.334 -46.5 -65.001s-42.5 -33.334 -68.5 -44.001s-53.667 -16 -83 -16c-28.667 0 -55.834 5.33301 -81.501 16s-48 25.334 -67 44.001s-34.167 40.334 -45.5 65.001s-17 51 -17 79s5.66699 54.167 17 78.5
s26.5 45.833 45.5 64.5s41.333 33.334 67 44.001s52.834 16 81.501 16zM445.997 1255c0 -21.333 6.33301 -39.166 19 -53.499s28.334 -21.5 47.001 -21.5s34.334 7.16699 47.001 21.5s19 32.166 19 53.499s-6.33301 39.666 -19 54.999s-28.334 23 -47.001 23
s-34.334 -7.66699 -47.001 -23s-19 -33.666 -19 -54.999z" />
    <glyph glyph-name="ae" unicode="&#xe6;" 
d="M35 842c34.667 45.333 75.498 78.8359 122.498 100.503s97.5 32.5 151.5 32.5c20.667 0 41.667 -3.16699 63 -9.5s41.833 -14.833 61.5 -25.5s37.834 -23.167 54.501 -37.5s30.667 -29.166 42 -44.499c10.667 16 23.167 31.167 37.5 45.5s29.833 26.666 46.5 36.999
s34.167 18.666 52.5 24.999s37.166 9.5 56.499 9.5c50 0 93.333 -10 130 -30s66.667 -48.333 90 -85s40.666 -80.834 51.999 -132.501s17 -109.167 17 -172.5v-100l-406 -17v-73c0 -33.333 3.66699 -63.5 11 -90.5s18 -50.333 32 -70s31 -34.834 51 -45.501
s42.667 -16 68 -16c54 0 101.667 35 143 105l113 -139c-36 -43.333 -76.5 -76.5 -121.5 -99.5s-93.167 -34.5 -144.5 -34.5c-47.333 0 -91.166 11.167 -131.499 33.5s-74.5 52.833 -102.5 91.5c-12 -18.667 -26.333 -35.667 -43 -51s-34.834 -28.5 -54.501 -39.5
s-40.334 -19.5 -62.001 -25.5s-43.5 -9 -65.5 -9c-45.333 0 -86.166 8 -122.499 24s-67.166 37.5 -92.499 64.5s-45 57.833 -59 92.5s-21 70.667 -21 108c0 48.667 9.66699 93.334 29 134.001s47 75.667 83 105s79.5 52.666 130.5 69.999s108.167 27 171.5 29
c0 66 -10.5 117.333 -31.5 154s-50.167 55 -87.5 55c-25.333 0 -50.666 -8.5 -75.999 -25.5s-50.666 -46.167 -75.999 -87.5zM423.998 430.003c-41.333 -2 -75.999 -7.66504 -103.999 -16.998s-50.667 -21.333 -68 -36s-29.833 -31.667 -37.5 -51s-11.5 -40 -11.5 -62
c0 -14 2.66699 -27.833 8 -41.5s12.666 -25.834 21.999 -36.501s20 -19.334 32 -26.001s24.667 -10 38 -10c44 0 75.167 15.167 93.5 45.5s27.5 75.833 27.5 136.5v98zM826.999 614.005l-0.000976562 11.001c0 26.667 -2.16699 51.5 -6.5 74.5s-11 42.667 -20 59
s-20 29.166 -33 38.499s-27.833 14 -44.5 14c-19.333 0 -36.166 -5.5 -50.499 -16.5s-26.5 -25.667 -36.5 -44s-17.5 -39.833 -22.5 -64.5s-7.5 -50.667 -7.5 -78z" />
    <glyph glyph-name="ccedilla" unicode="&#xe7;" 
d="M799 621c-6 1.33301 -10.3271 3.82715 -12.9941 7.49414s-4.66699 7.83398 -6 12.501s-2.5 9.83398 -3.5 15.501s-2.5 11.5 -4.5 17.5c-18.667 32 -45.5 58.667 -80.5 80s-77.833 32 -128.5 32c-34.667 0 -67.334 -7.5 -98.001 -22.5s-57.334 -36 -80.001 -63
s-40.667 -59.167 -54 -96.5s-20 -78.333 -20 -123c0 -45.333 6.16699 -87.166 18.5 -125.499s29.666 -71.833 51.999 -100.5s49 -51 80 -67s65.5 -24 103.5 -24c18.667 0 38.167 2.16699 58.5 6.5s40.833 11.5 61.5 21.5s41 23.167 61 39.5s39.667 36.166 59 59.499
l133 -154c-40 -46 -83.5 -81.833 -130.5 -107.5s-96.5 -43.167 -148.5 -52.5l-4 -40c52 -5.33301 91.667 -21 119 -47s41 -59 41 -99c0 -21.333 -5.33301 -42.833 -16 -64.5s-26.834 -41 -48.501 -58s-48.834 -30.833 -81.501 -41.5s-71.334 -16 -116.001 -16
c-43.333 0 -86.833 7.16699 -130.5 21.5s-86.167 38.5 -127.5 72.5l76 129c20 -16.667 38.667 -30.5 56 -41.5s34.333 -19.667 51 -26s33.167 -10.666 49.5 -12.999s33.166 -3.5 50.499 -3.5c19.333 0 32.666 4 39.999 12s11 15.667 11 23s-4.66699 14.666 -14 21.999
s-22.666 11 -39.999 11h-100l21 153c-62 6.66699 -118.667 23.834 -170 51.501s-95.333 63.334 -132 107.001s-65.167 94.334 -85.5 152.001s-30.5 120.167 -30.5 187.5c0 71.333 11.667 137.833 35 199.5s56.333 115.334 99 161.001s93.834 81.667 153.501 108
s125.5 39.5 197.5 39.5c40 0 78.667 -4 116 -12s72.5 -19.667 105.5 -35s63.167 -34.5 90.5 -57.5s51 -49.5 71 -79.5z" />
    <glyph glyph-name="egrave" unicode="&#xe8;" 
d="M528 977c56.667 0 109.665 -10.001 158.998 -30.001s92.5 -49.5 129.5 -88.5s66.167 -87.667 87.5 -146s32 -125.833 32 -202.5c0 -16.667 -0.666992 -33 -2 -49l-4 -47h-627c5.33301 -46 16 -85.5 32 -118.5s35.333 -60.333 58 -82s47.834 -37.667 75.501 -48
s55.834 -15.5 84.501 -15.5c43.333 0 85.833 9.83301 127.5 29.5s77.5 48.5 107.5 86.5l127 -127c-96.667 -114.667 -217.334 -172 -362.001 -172c-68.667 0 -132.167 11.333 -190.5 34s-108.666 55.334 -150.999 98.001s-75.5 94.834 -99.5 156.501s-36 131.5 -36 209.5
c0 79.333 11.333 150.666 34 213.999s54.167 117 94.5 161s88 77.833 143 101.5s115.167 35.5 180.5 35.5zM706.998 581.999c0 30 -4.49902 58.499 -13.499 85.499s-21.667 50.667 -38 71s-36.333 36.5 -60 48.5s-50.167 18 -79.5 18c-28 0 -53.833 -5.33301 -77.5 -16
s-44.334 -25.667 -62.001 -45s-32 -42.666 -43 -69.999s-18.5 -58 -22.5 -92h396zM685.999 1126l-115 -67l-215 289l166 114z" />
    <glyph glyph-name="eacute" unicode="&#xe9;" 
d="M528 977c56.667 0 109.665 -10.001 158.998 -30.001s92.5 -49.5 129.5 -88.5s66.167 -87.667 87.5 -146s32 -125.833 32 -202.5c0 -16.667 -0.666992 -33 -2 -49l-4 -47h-627c5.33301 -46 16 -85.5 32 -118.5s35.333 -60.333 58 -82s47.834 -37.667 75.501 -48
s55.834 -15.5 84.501 -15.5c43.333 0 85.833 9.83301 127.5 29.5s77.5 48.5 107.5 86.5l127 -127c-96.667 -114.667 -217.334 -172 -362.001 -172c-68.667 0 -132.167 11.333 -190.5 34s-108.666 55.334 -150.999 98.001s-75.5 94.834 -99.5 156.501s-36 131.5 -36 209.5
c0 79.333 11.333 150.666 34 213.999s54.167 117 94.5 161s88 77.833 143 101.5s115.167 35.5 180.5 35.5zM706.998 581.999c0 30 -4.49902 58.499 -13.499 85.499s-21.667 50.667 -38 71s-36.333 36.5 -60 48.5s-50.167 18 -79.5 18c-28 0 -53.833 -5.33301 -77.5 -16
s-44.334 -25.667 -62.001 -45s-32 -42.666 -43 -69.999s-18.5 -58 -22.5 -92h396zM570.999 1462l166 -114l-215 -289l-114 67z" />
    <glyph glyph-name="ecircumflex" unicode="&#xea;" 
d="M528 977c56.667 0 109.665 -10.001 158.998 -30.001s92.5 -49.5 129.5 -88.5s66.167 -87.667 87.5 -146s32 -125.833 32 -202.5c0 -16.667 -0.666992 -33 -2 -49l-4 -47h-627c5.33301 -46 16 -85.5 32 -118.5s35.333 -60.333 58 -82s47.834 -37.667 75.501 -48
s55.834 -15.5 84.501 -15.5c43.333 0 85.833 9.83301 127.5 29.5s77.5 48.5 107.5 86.5l127 -127c-96.667 -114.667 -217.334 -172 -362.001 -172c-68.667 0 -132.167 11.333 -190.5 34s-108.666 55.334 -150.999 98.001s-75.5 94.834 -99.5 156.501s-36 131.5 -36 209.5
c0 79.333 11.333 150.666 34 213.999s54.167 117 94.5 161s88 77.833 143 101.5s115.167 35.5 180.5 35.5zM706.998 581.999c0 30 -4.49902 58.499 -13.499 85.499s-21.667 50.667 -38 71s-36.333 36.5 -60 48.5s-50.167 18 -79.5 18c-28 0 -53.833 -5.33301 -77.5 -16
s-44.334 -25.667 -62.001 -45s-32 -42.666 -43 -69.999s-18.5 -58 -22.5 -92h396zM253.999 1130l235 297h66l236 -299l-119 -88l-156 181l-164 -179z" />
    <glyph glyph-name="edieresis" unicode="&#xeb;" 
d="M528 977c56.667 0 109.665 -10.001 158.998 -30.001s92.5 -49.5 129.5 -88.5s66.167 -87.667 87.5 -146s32 -125.833 32 -202.5c0 -16.667 -0.666992 -33 -2 -49l-4 -47h-627c5.33301 -46 16 -85.5 32 -118.5s35.333 -60.333 58 -82s47.834 -37.667 75.501 -48
s55.834 -15.5 84.501 -15.5c43.333 0 85.833 9.83301 127.5 29.5s77.5 48.5 107.5 86.5l127 -127c-96.667 -114.667 -217.334 -172 -362.001 -172c-68.667 0 -132.167 11.333 -190.5 34s-108.666 55.334 -150.999 98.001s-75.5 94.834 -99.5 156.501s-36 131.5 -36 209.5
c0 79.333 11.333 150.666 34 213.999s54.167 117 94.5 161s88 77.833 143 101.5s115.167 35.5 180.5 35.5zM706.998 581.999c0 30 -4.49902 58.499 -13.499 85.499s-21.667 50.667 -38 71s-36.333 36.5 -60 48.5s-50.167 18 -79.5 18c-28 0 -53.833 -5.33301 -77.5 -16
s-44.334 -25.667 -62.001 -45s-32 -42.666 -43 -69.999s-18.5 -58 -22.5 -92h396zM327.999 1386c18 0 35.5 -3.16699 52.5 -9.5s32.167 -15.333 45.5 -27s24.166 -25.667 32.499 -42s12.5 -34.5 12.5 -54.5c0 -18 -3.83301 -34.833 -11.5 -50.5s-18 -29.5 -31 -41.5
s-28.167 -21.5 -45.5 -28.5s-35.666 -10.5 -54.999 -10.5s-37.666 3.5 -54.999 10.5s-32.5 16.5 -45.5 28.5s-23.167 25.833 -30.5 41.5s-11 32.5 -11 50.5s3.66699 35 11 51s17.5 30.167 30.5 42.5s28.167 22 45.5 29s35.666 10.5 54.999 10.5zM703.999 1386
c17.333 0 34.5 -3.16699 51.5 -9.5s32.167 -15.333 45.5 -27s24.166 -25.667 32.499 -42s12.5 -34.5 12.5 -54.5c0 -18 -3.66699 -34.833 -11 -50.5s-17.5 -29.5 -30.5 -41.5s-28.167 -21.5 -45.5 -28.5s-35.666 -10.5 -54.999 -10.5s-37.5 3.33301 -54.5 10s-32 16 -45 28
s-23.167 26 -30.5 42s-11 33 -11 51c0 18.667 3.66699 36 11 52s17.5 30 30.5 42s28 21.5 45 28.5s35.167 10.5 54.5 10.5z" />
    <glyph glyph-name="igrave" unicode="&#xec;" 
d="M193 956h448v-772h209v-184h-668v184h230v588h-219v184zM585 1126l-115 -67l-215 289l166 114z" />
    <glyph glyph-name="iacute" unicode="&#xed;" 
d="M193 956h448v-772h209v-184h-668v184h230v588h-219v184zM556 1462l166 -114l-215 -289l-114 67z" />
    <glyph glyph-name="icircumflex" unicode="&#xee;" 
d="M193 956h448v-772h209v-184h-668v184h230v588h-219v184zM214 1130l235 297h66l236 -299l-119 -88l-156 181l-164 -179z" />
    <glyph glyph-name="idieresis" unicode="&#xef;" 
d="M193 956h448v-772h209v-184h-668v184h230v588h-219v184zM311 1386c18 0 35.5 -3.16699 52.5 -9.5s32.167 -15.333 45.5 -27s24.166 -25.667 32.499 -42s12.5 -34.5 12.5 -54.5c0 -18 -3.83301 -34.833 -11.5 -50.5s-18 -29.5 -31 -41.5s-28.167 -21.5 -45.5 -28.5
s-35.666 -10.5 -54.999 -10.5s-37.666 3.5 -54.999 10.5s-32.5 16.5 -45.5 28.5s-23.167 25.833 -30.5 41.5s-11 32.5 -11 50.5s3.66699 35 11 51s17.5 30.167 30.5 42.5s28.167 22 45.5 29s35.666 10.5 54.999 10.5zM687 1386c17.333 0 34.5 -3.16699 51.5 -9.5
s32.167 -15.333 45.5 -27s24.166 -25.667 32.499 -42s12.5 -34.5 12.5 -54.5c0 -18 -3.66699 -34.833 -11 -50.5s-17.5 -29.5 -30.5 -41.5s-28.167 -21.5 -45.5 -28.5s-35.666 -10.5 -54.999 -10.5s-37.5 3.33301 -54.5 10s-32 16 -45 28s-23.167 26 -30.5 42s-11 33 -11 51
c0 18.667 3.66699 36 11 52s17.5 30 30.5 42s28 21.5 45 28.5s35.167 10.5 54.5 10.5z" />
    <glyph glyph-name="eth" unicode="&#xf0;" 
d="M473 1401c28.667 -18.667 56.3301 -37.8359 82.9971 -57.5029s52.334 -40.167 77.001 -61.5l235 61l58 -153l-164 -43c64.667 -85.333 114.334 -180.5 149.001 -285.5s52 -220.833 52 -347.5c0 -81.333 -9.16699 -155.5 -27.5 -222.5s-46 -124.5 -83 -172.5
s-83 -85.333 -138 -112s-119.167 -40 -192.5 -40c-64 0 -123.167 12.5 -177.5 37.5s-101.5 59.333 -141.5 103s-71.167 95.334 -93.5 155.001s-33.5 124.5 -33.5 194.5c0 68 10.167 132.667 30.5 194s49 115.333 86 162s81.333 83.667 133 111s108.5 41 170.5 41
c16 0 33 -1.83301 51 -5.5s35.667 -8.66699 53 -15s34.166 -14.166 50.499 -23.499s30.833 -20 43.5 -32c-13.333 28 -29.166 58.5 -47.499 91.5s-44.166 68.5 -77.499 106.5l-254 -71l-61 162l170 43c-28 20.667 -58 41.334 -90 62.001s-67.667 41.667 -107 63z
M527.996 159.998c28.667 0 55.3369 6.5 80.0039 19.5s46 32.5 64 58.5s32 58.667 42 98s15 85.666 15 138.999c0 54 -5.66699 99.833 -17 137.5s-26.5 68.5 -45.5 92.5s-40.833 41.5 -65.5 52.5s-50.334 16.5 -77.001 16.5c-29.333 0 -56.833 -6.5 -82.5 -19.5
s-47.834 -32.167 -66.501 -57.5s-33.334 -56.666 -44.001 -93.999s-16 -80 -16 -128c0 -45.333 5 -87.333 15 -126s24.167 -72 42.5 -100s40.666 -49.833 66.999 -65.5s55.833 -23.5 88.5 -23.5z" />
    <glyph glyph-name="ntilde" unicode="&#xf1;" 
d="M123 0l0.000976562 955.999h231v-98c33.333 36 72 64.833 116 86.5s88.667 32.5 134 32.5c48 0 91.667 -7.33301 131 -22s72.833 -37.834 100.5 -69.501s49 -72.667 64 -123s22.5 -111.166 22.5 -182.499v-580h-226v578c0 36.667 -3.33301 68.334 -10 95.001
s-16 48.5 -28 65.5s-26.333 29.5 -43 37.5s-35.334 12 -56.001 12c-28.667 0 -55.5 -5.66699 -80.5 -17s-46.667 -27.333 -65 -48s-32.833 -45.5 -43.5 -74.5s-16 -60.833 -16 -95.5v-553h-231zM169.001 1217c83.333 136 169.333 204.001 258 204.001
c29.333 0 55.833 -6.83301 79.5 -20.5s45.167 -29.834 64.5 -48.501l16.5 -18c6.33301 -6.66699 12.833 -13 19.5 -19s13.834 -11 21.501 -15s15.5 -6 23.5 -6c10 0 19.667 3.33301 29 10s18.5 15.5 27.5 26.5s18 23.5 27 37.5l27.5 43l113 -127l-60.5 -73
c-18.333 -21.333 -35.833 -39.333 -52.5 -54s-33.334 -25.834 -50.001 -33.501s-34 -11.5 -52 -11.5c-26 0 -49.833 5.5 -71.5 16.5s-42.167 24.5 -61.5 40.5c-6 5.33301 -13 12.333 -21 21s-16.5 17.334 -25.5 26.001s-18.5 16 -28.5 22s-20 9 -30 9
c-20.667 0 -39 -11.167 -55 -33.5s-35.333 -55.5 -58 -99.5z" />
    <glyph glyph-name="ograve" unicode="&#xf2;" 
d="M520 977c62 0 120.004 -11.333 174.004 -34s101.167 -55.5 141.5 -98.5s72 -95.833 95 -158.5s34.5 -133.667 34.5 -213s-11.333 -150.333 -34 -213s-53.834 -115.667 -93.501 -159s-86.834 -76.5 -141.501 -99.5s-114 -34.5 -178 -34.5s-123.833 12.333 -179.5 37
s-104.334 59.334 -146.001 104.001s-74.334 97.667 -98.001 159s-35.5 128.666 -35.5 201.999c0 72.667 12.167 140 36.5 202s57.5 115.667 99.5 161s90.833 80.833 146.5 106.5s115.167 38.5 178.5 38.5zM737.004 469c0 52 -5.5 97.999 -16.5 137.999
s-26.5 73.833 -46.5 101.5s-43.667 48.667 -71 63s-57 21.5 -89 21.5c-32.667 0 -62.5 -7.16699 -89.5 -21.5s-50 -35.166 -69 -62.499s-33.833 -60.5 -44.5 -99.5s-16 -83.167 -16 -132.5s5.16699 -93.833 15.5 -133.5s25.166 -73.5 44.499 -101.5s42.833 -49.667 70.5 -65
s58.5 -23 92.5 -23c66.667 0 119.834 27 159.501 81s59.5 132 59.5 234zM686.004 1126l-115 -67l-215 289l166 114z" />
    <glyph glyph-name="oacute" unicode="&#xf3;" 
d="M520 977c62 0 120.004 -11.333 174.004 -34s101.167 -55.5 141.5 -98.5s72 -95.833 95 -158.5s34.5 -133.667 34.5 -213s-11.333 -150.333 -34 -213s-53.834 -115.667 -93.501 -159s-86.834 -76.5 -141.501 -99.5s-114 -34.5 -178 -34.5s-123.833 12.333 -179.5 37
s-104.334 59.334 -146.001 104.001s-74.334 97.667 -98.001 159s-35.5 128.666 -35.5 201.999c0 72.667 12.167 140 36.5 202s57.5 115.667 99.5 161s90.833 80.833 146.5 106.5s115.167 38.5 178.5 38.5zM737.004 469c0 52 -5.5 97.999 -16.5 137.999
s-26.5 73.833 -46.5 101.5s-43.667 48.667 -71 63s-57 21.5 -89 21.5c-32.667 0 -62.5 -7.16699 -89.5 -21.5s-50 -35.166 -69 -62.499s-33.833 -60.5 -44.5 -99.5s-16 -83.167 -16 -132.5s5.16699 -93.833 15.5 -133.5s25.166 -73.5 44.499 -101.5s42.833 -49.667 70.5 -65
s58.5 -23 92.5 -23c66.667 0 119.834 27 159.501 81s59.5 132 59.5 234zM571.004 1462l166 -114l-215 -289l-114 67z" />
    <glyph glyph-name="ocircumflex" unicode="&#xf4;" 
d="M520 977c62 0 120.004 -11.333 174.004 -34s101.167 -55.5 141.5 -98.5s72 -95.833 95 -158.5s34.5 -133.667 34.5 -213s-11.333 -150.333 -34 -213s-53.834 -115.667 -93.501 -159s-86.834 -76.5 -141.501 -99.5s-114 -34.5 -178 -34.5s-123.833 12.333 -179.5 37
s-104.334 59.334 -146.001 104.001s-74.334 97.667 -98.001 159s-35.5 128.666 -35.5 201.999c0 72.667 12.167 140 36.5 202s57.5 115.667 99.5 161s90.833 80.833 146.5 106.5s115.167 38.5 178.5 38.5zM737.004 469c0 52 -5.5 97.999 -16.5 137.999
s-26.5 73.833 -46.5 101.5s-43.667 48.667 -71 63s-57 21.5 -89 21.5c-32.667 0 -62.5 -7.16699 -89.5 -21.5s-50 -35.166 -69 -62.499s-33.833 -60.5 -44.5 -99.5s-16 -83.167 -16 -132.5s5.16699 -93.833 15.5 -133.5s25.166 -73.5 44.499 -101.5s42.833 -49.667 70.5 -65
s58.5 -23 92.5 -23c66.667 0 119.834 27 159.501 81s59.5 132 59.5 234zM254.004 1130l235 297h66l236 -299l-119 -88l-156 181l-164 -179z" />
    <glyph glyph-name="otilde" unicode="&#xf5;" 
d="M520 977c62 0 120.004 -11.333 174.004 -34s101.167 -55.5 141.5 -98.5s72 -95.833 95 -158.5s34.5 -133.667 34.5 -213s-11.333 -150.333 -34 -213s-53.834 -115.667 -93.501 -159s-86.834 -76.5 -141.501 -99.5s-114 -34.5 -178 -34.5s-123.833 12.333 -179.5 37
s-104.334 59.334 -146.001 104.001s-74.334 97.667 -98.001 159s-35.5 128.666 -35.5 201.999c0 72.667 12.167 140 36.5 202s57.5 115.667 99.5 161s90.833 80.833 146.5 106.5s115.167 38.5 178.5 38.5zM737.004 469c0 52 -5.5 97.999 -16.5 137.999
s-26.5 73.833 -46.5 101.5s-43.667 48.667 -71 63s-57 21.5 -89 21.5c-32.667 0 -62.5 -7.16699 -89.5 -21.5s-50 -35.166 -69 -62.499s-33.833 -60.5 -44.5 -99.5s-16 -83.167 -16 -132.5s5.16699 -93.833 15.5 -133.5s25.166 -73.5 44.499 -101.5s42.833 -49.667 70.5 -65
s58.5 -23 92.5 -23c66.667 0 119.834 27 159.501 81s59.5 132 59.5 234zM176.004 1217c83.333 136 169.333 204.001 258 204.001c29.333 0 55.833 -6.83301 79.5 -20.5s45.167 -29.834 64.5 -48.501l16.5 -18c6.33301 -6.66699 12.833 -13 19.5 -19s13.834 -11 21.501 -15
s15.5 -6 23.5 -6c10 0 19.667 3.33301 29 10s18.5 15.5 27.5 26.5s18 23.5 27 37.5l27.5 43l113 -127l-60.5 -73c-18.333 -21.333 -35.833 -39.333 -52.5 -54s-33.334 -25.834 -50.001 -33.501s-34 -11.5 -52 -11.5c-26 0 -49.833 5.5 -71.5 16.5s-42.167 24.5 -61.5 40.5
c-6 5.33301 -13 12.333 -21 21s-16.5 17.334 -25.5 26.001s-18.5 16 -28.5 22s-20 9 -30 9c-20.667 0 -39 -11.167 -55 -33.5s-35.333 -55.5 -58 -99.5z" />
    <glyph glyph-name="odieresis" unicode="&#xf6;" 
d="M520 977c62 0 120.004 -11.333 174.004 -34s101.167 -55.5 141.5 -98.5s72 -95.833 95 -158.5s34.5 -133.667 34.5 -213s-11.333 -150.333 -34 -213s-53.834 -115.667 -93.501 -159s-86.834 -76.5 -141.501 -99.5s-114 -34.5 -178 -34.5s-123.833 12.333 -179.5 37
s-104.334 59.334 -146.001 104.001s-74.334 97.667 -98.001 159s-35.5 128.666 -35.5 201.999c0 72.667 12.167 140 36.5 202s57.5 115.667 99.5 161s90.833 80.833 146.5 106.5s115.167 38.5 178.5 38.5zM737.004 469c0 52 -5.5 97.999 -16.5 137.999
s-26.5 73.833 -46.5 101.5s-43.667 48.667 -71 63s-57 21.5 -89 21.5c-32.667 0 -62.5 -7.16699 -89.5 -21.5s-50 -35.166 -69 -62.499s-33.833 -60.5 -44.5 -99.5s-16 -83.167 -16 -132.5s5.16699 -93.833 15.5 -133.5s25.166 -73.5 44.499 -101.5s42.833 -49.667 70.5 -65
s58.5 -23 92.5 -23c66.667 0 119.834 27 159.501 81s59.5 132 59.5 234zM326.004 1386c18 0 35.5 -3.16699 52.5 -9.5s32.167 -15.333 45.5 -27s24.166 -25.667 32.499 -42s12.5 -34.5 12.5 -54.5c0 -18 -3.83301 -34.833 -11.5 -50.5s-18 -29.5 -31 -41.5
s-28.167 -21.5 -45.5 -28.5s-35.666 -10.5 -54.999 -10.5s-37.666 3.5 -54.999 10.5s-32.5 16.5 -45.5 28.5s-23.167 25.833 -30.5 41.5s-11 32.5 -11 50.5s3.66699 35 11 51s17.5 30.167 30.5 42.5s28.167 22 45.5 29s35.666 10.5 54.999 10.5zM702.004 1386
c17.333 0 34.5 -3.16699 51.5 -9.5s32.167 -15.333 45.5 -27s24.166 -25.667 32.499 -42s12.5 -34.5 12.5 -54.5c0 -18 -3.66699 -34.833 -11 -50.5s-17.5 -29.5 -30.5 -41.5s-28.167 -21.5 -45.5 -28.5s-35.666 -10.5 -54.999 -10.5s-37.5 3.33301 -54.5 10s-32 16 -45 28
s-23.167 26 -30.5 42s-11 33 -11 51c0 18.667 3.66699 36 11 52s17.5 30 30.5 42s28 21.5 45 28.5s35.167 10.5 54.5 10.5z" />
    <glyph glyph-name="divide" unicode="&#xf7;" 
d="M127 762h772v-203h-772v203zM522 1071c20.667 0 39 -4.16602 55 -12.499s29.667 -18.666 41 -30.999s20 -25.833 26 -40.5s9 -28.334 9 -41.001c0 -16 -3.5 -31.333 -10.5 -46s-16.333 -27.5 -28 -38.5s-25.5 -19.833 -41.5 -26.5s-33 -10 -51 -10
s-34.833 3.33301 -50.5 10s-29.5 15.5 -41.5 26.5s-21.5 23.833 -28.5 38.5s-10.5 30 -10.5 46c0 16.667 3.66699 32.667 11 48s17 28.666 29 39.999s25.833 20.333 41.5 27s32.167 10 49.5 10zM522 489.001c21.333 0 40.166 -4.00098 56.499 -12.001s30 -18.167 41 -30.5
s19.333 -25.666 25 -39.999s8.5 -27.5 8.5 -39.5c0 -17.333 -3.5 -33.333 -10.5 -48s-16.333 -27.334 -28 -38.001s-25.5 -19.167 -41.5 -25.5s-33 -9.5 -51 -9.5c-17.333 0 -34 3.16699 -50 9.5s-30.167 14.833 -42.5 25.5s-22.166 23.334 -29.499 38.001
s-11 30.667 -11 48c0 18 3.83301 34.5 11.5 49.5s17.667 27.833 30 38.5s26.5 19 42.5 25s32.333 9 49 9z" />
    <glyph glyph-name="oslash" unicode="&#xf8;" 
d="M899 975l-69.9971 -127c42 -43.333 75.167 -96.333 99.5 -159s36.5 -134.667 36.5 -216c0 -79.333 -11.333 -150.333 -34 -213s-53.834 -115.667 -93.501 -159s-86.834 -76.5 -141.501 -99.5s-114 -34.5 -178 -34.5c-53.333 0 -105.333 9.66699 -156 29l-71 -135l-176 92
l82 151c-43.333 44.667 -77.166 97.834 -101.499 159.501s-36.5 130.167 -36.5 205.5c0 72.667 12.167 140 36.5 202s57.5 115.667 99.5 161s90.833 80.833 146.5 106.5s115.167 38.5 178.5 38.5c23.333 0 46.666 -1.83301 69.999 -5.5s45.666 -8.83398 66.999 -15.501
l64 115zM455.003 162c10 -3.33301 20.167 -5.5 30.5 -6.5s21.166 -1.5 32.499 -1.5c66.667 0 119.834 27 159.501 81s59.5 132 59.5 234c0 62 -8 116.667 -24 164zM565.003 786c-14.667 4.66699 -31.667 6.99902 -51 6.99902c-32.667 0 -62.5 -7.16699 -89.5 -21.5
s-50 -35.166 -69 -62.499s-33.833 -60.5 -44.5 -99.5s-16 -83.167 -16 -132.5c0 -28.667 1.5 -55.667 4.5 -81s8.16699 -49.333 15.5 -72z" />
    <glyph glyph-name="ugrave" unicode="&#xf9;" 
d="M903 956l-0.00292969 -841.002c0 -17.333 1.83301 -35.666 5.5 -54.999s8.16699 -39.333 13.5 -60h-222c-8 6 -13.333 15 -16 27s-4 22.667 -4 32v31c-14 -20.667 -31 -39 -51 -55s-41.667 -29.667 -65 -41s-47.166 -20 -71.499 -26s-47.833 -9 -70.5 -9
c-50 0 -94.667 7.33301 -134 22s-72.666 38 -99.999 70s-48.166 73.333 -62.499 124s-21.5 111.667 -21.5 183v598h226v-598c0 -73.333 12.5 -126.833 37.5 -160.5s58.167 -50.5 99.5 -50.5c28.667 0 55.5 5.83301 80.5 17.5s46.667 27.834 65 48.501s32.833 45.5 43.5 74.5
s16 60.833 16 95.5v573h231zM685.997 1126l-115 -67l-215 289l166 114z" />
    <glyph glyph-name="uacute" unicode="&#xfa;" 
d="M903 956l-0.00292969 -841.002c0 -17.333 1.83301 -35.666 5.5 -54.999s8.16699 -39.333 13.5 -60h-222c-8 6 -13.333 15 -16 27s-4 22.667 -4 32v31c-14 -20.667 -31 -39 -51 -55s-41.667 -29.667 -65 -41s-47.166 -20 -71.499 -26s-47.833 -9 -70.5 -9
c-50 0 -94.667 7.33301 -134 22s-72.666 38 -99.999 70s-48.166 73.333 -62.499 124s-21.5 111.667 -21.5 183v598h226v-598c0 -73.333 12.5 -126.833 37.5 -160.5s58.167 -50.5 99.5 -50.5c28.667 0 55.5 5.83301 80.5 17.5s46.667 27.834 65 48.501s32.833 45.5 43.5 74.5
s16 60.833 16 95.5v573h231zM570.997 1462l166 -114l-215 -289l-114 67z" />
    <glyph glyph-name="ucircumflex" unicode="&#xfb;" 
d="M903 956l-0.00292969 -841.002c0 -17.333 1.83301 -35.666 5.5 -54.999s8.16699 -39.333 13.5 -60h-222c-8 6 -13.333 15 -16 27s-4 22.667 -4 32v31c-14 -20.667 -31 -39 -51 -55s-41.667 -29.667 -65 -41s-47.166 -20 -71.499 -26s-47.833 -9 -70.5 -9
c-50 0 -94.667 7.33301 -134 22s-72.666 38 -99.999 70s-48.166 73.333 -62.499 124s-21.5 111.667 -21.5 183v598h226v-598c0 -73.333 12.5 -126.833 37.5 -160.5s58.167 -50.5 99.5 -50.5c28.667 0 55.5 5.83301 80.5 17.5s46.667 27.834 65 48.501s32.833 45.5 43.5 74.5
s16 60.833 16 95.5v573h231zM253.997 1130l235 297h66l236 -299l-119 -88l-156 181l-164 -179z" />
    <glyph glyph-name="udieresis" unicode="&#xfc;" 
d="M903 956l-0.00292969 -841.002c0 -17.333 1.83301 -35.666 5.5 -54.999s8.16699 -39.333 13.5 -60h-222c-8 6 -13.333 15 -16 27s-4 22.667 -4 32v31c-14 -20.667 -31 -39 -51 -55s-41.667 -29.667 -65 -41s-47.166 -20 -71.499 -26s-47.833 -9 -70.5 -9
c-50 0 -94.667 7.33301 -134 22s-72.666 38 -99.999 70s-48.166 73.333 -62.499 124s-21.5 111.667 -21.5 183v598h226v-598c0 -73.333 12.5 -126.833 37.5 -160.5s58.167 -50.5 99.5 -50.5c28.667 0 55.5 5.83301 80.5 17.5s46.667 27.834 65 48.501s32.833 45.5 43.5 74.5
s16 60.833 16 95.5v573h231zM325.997 1386c18 0 35.5 -3.16699 52.5 -9.5s32.167 -15.333 45.5 -27s24.166 -25.667 32.499 -42s12.5 -34.5 12.5 -54.5c0 -18 -3.83301 -34.833 -11.5 -50.5s-18 -29.5 -31 -41.5s-28.167 -21.5 -45.5 -28.5s-35.666 -10.5 -54.999 -10.5
s-37.666 3.5 -54.999 10.5s-32.5 16.5 -45.5 28.5s-23.167 25.833 -30.5 41.5s-11 32.5 -11 50.5s3.66699 35 11 51s17.5 30.167 30.5 42.5s28.167 22 45.5 29s35.666 10.5 54.999 10.5zM701.997 1386c17.333 0 34.5 -3.16699 51.5 -9.5s32.167 -15.333 45.5 -27
s24.166 -25.667 32.499 -42s12.5 -34.5 12.5 -54.5c0 -18 -3.66699 -34.833 -11 -50.5s-17.5 -29.5 -30.5 -41.5s-28.167 -21.5 -45.5 -28.5s-35.666 -10.5 -54.999 -10.5s-37.5 3.33301 -54.5 10s-32 16 -45 28s-23.167 26 -30.5 42s-11 33 -11 51
c0 18.667 3.66699 36 11 52s17.5 30 30.5 42s28 21.5 45 28.5s35.167 10.5 54.5 10.5z" />
    <glyph glyph-name="yacute" unicode="&#xfd;" 
d="M590 -104c-17.333 -46 -37.334 -85.3301 -60.001 -117.997s-47.334 -59.334 -74.001 -80.001s-55.167 -35.834 -85.5 -45.501s-61.833 -14.5 -94.5 -14.5c-94 0 -178.333 36 -253 108l114 197c8 -4 13.667 -8.33301 17 -13s6 -10 8 -16s4 -12.333 6 -19
s5.33301 -14 10 -22c9.33301 -16.667 20.833 -29 34.5 -37s30.834 -12 51.501 -12c14.667 0 28.667 3 42 9s26.5 16.333 39.5 31s25.833 34 38.5 58s25.334 54 38.001 90l-359 944h281c0 -7.33301 -0.666992 -13.5 -2 -18.5s-3 -9.83301 -5 -14.5s-3.66699 -9.5 -5 -14.5
s-2 -10.833 -2 -17.5l213 -594l92 252c12.667 34 24.834 69 36.501 105s22.5 71.667 32.5 107s19 69.5 27 102.5s15 63.833 21 92.5h219c-16.667 -68.667 -37.334 -139.834 -62.001 -213.501s-52 -148.5 -82 -224.5zM570.999 1462l166 -114l-215 -289l-114 67z" />
    <glyph glyph-name="thorn" unicode="&#xfe;" 
d="M330 489c0 -59.333 4.33008 -109.835 12.9971 -151.502s21 -75.667 37 -102s35.5 -45.5 58.5 -57.5s48.833 -18 77.5 -18c22.667 0 46.334 5.33301 71.001 16s47.334 28 68.001 52s37.5 55.5 50.5 94.5s19.5 87.167 19.5 144.5c0 60.667 -6.5 112.834 -19.5 156.501
s-31.833 78.834 -56.5 105.501c-18.667 20.667 -38.5 36.167 -59.5 46.5s-47.5 15.5 -79.5 15.5c-37.333 0 -67.666 -8.16699 -90.999 -24.5s-41.5 -38.5 -54.5 -66.5s-22 -60.167 -27 -96.5s-7.5 -74.5 -7.5 -114.5zM101.997 1382l257.999 0.000976562
c0 -8 -1.33301 -14.333 -4 -19s-5.5 -8.83398 -8.5 -12.501l-9.5 -11.5c-3.33301 -4 -5.33301 -9.33301 -6 -16v-449c30 33.333 64.333 58.833 103 76.5s78 26.5 118 26.5c54 0 105.333 -10 154 -30s91.5 -50 128.5 -90s66.333 -89.833 88 -149.5s32.5 -129.5 32.5 -209.5
c0 -88 -11.167 -165.167 -33.5 -231.5s-52.166 -121.5 -89.499 -165.5s-80 -77 -128 -99s-98 -33 -150 -33c-17.333 0 -36 2 -56 6s-39.833 10 -59.5 18s-38.667 17.833 -57 29.5s-34.5 25.167 -48.5 40.5v-405h-232v1724z" />
    <glyph glyph-name="ydieresis" unicode="&#xff;" 
d="M590 -104c-17.333 -46 -37.334 -85.3301 -60.001 -117.997s-47.334 -59.334 -74.001 -80.001s-55.167 -35.834 -85.5 -45.501s-61.833 -14.5 -94.5 -14.5c-94 0 -178.333 36 -253 108l114 197c8 -4 13.667 -8.33301 17 -13s6 -10 8 -16s4 -12.333 6 -19
s5.33301 -14 10 -22c9.33301 -16.667 20.833 -29 34.5 -37s30.834 -12 51.501 -12c14.667 0 28.667 3 42 9s26.5 16.333 39.5 31s25.833 34 38.5 58s25.334 54 38.001 90l-359 944h281c0 -7.33301 -0.666992 -13.5 -2 -18.5s-3 -9.83301 -5 -14.5s-3.66699 -9.5 -5 -14.5
s-2 -10.833 -2 -17.5l213 -594l92 252c12.667 34 24.834 69 36.501 105s22.5 71.667 32.5 107s19 69.5 27 102.5s15 63.833 21 92.5h219c-16.667 -68.667 -37.334 -139.834 -62.001 -213.501s-52 -148.5 -82 -224.5zM325.999 1386c18 0 35.5 -3.16699 52.5 -9.5
s32.167 -15.333 45.5 -27s24.166 -25.667 32.499 -42s12.5 -34.5 12.5 -54.5c0 -18 -3.83301 -34.833 -11.5 -50.5s-18 -29.5 -31 -41.5s-28.167 -21.5 -45.5 -28.5s-35.666 -10.5 -54.999 -10.5s-37.666 3.5 -54.999 10.5s-32.5 16.5 -45.5 28.5s-23.167 25.833 -30.5 41.5
s-11 32.5 -11 50.5s3.66699 35 11 51s17.5 30.167 30.5 42.5s28.167 22 45.5 29s35.666 10.5 54.999 10.5zM701.999 1386c17.333 0 34.5 -3.16699 51.5 -9.5s32.167 -15.333 45.5 -27s24.166 -25.667 32.499 -42s12.5 -34.5 12.5 -54.5c0 -18 -3.66699 -34.833 -11 -50.5
s-17.5 -29.5 -30.5 -41.5s-28.167 -21.5 -45.5 -28.5s-35.666 -10.5 -54.999 -10.5s-37.5 3.33301 -54.5 10s-32 16 -45 28s-23.167 26 -30.5 42s-11 33 -11 51c0 18.667 3.66699 36 11 52s17.5 30 30.5 42s28 21.5 45 28.5s35.167 10.5 54.5 10.5z" />
    <glyph glyph-name="Abreve" unicode="&#x102;" 
d="M0 0l426 1298h133l467 -1298h-240l-116 330h-334l-100 -330h-236zM629 489l-133 424l-125 -424h258zM283 1655c28.667 -50.667 62.5 -87.667 101.5 -111s78.167 -35 117.5 -35c18 0 36.333 2.33301 55 7s37.667 12.667 57 24s38.5 26.333 57.5 45s37.5 42 55.5 70
l98 -148c-22.667 -27.333 -47.334 -51.833 -74.001 -73.5s-54.167 -40 -82.5 -55s-57.166 -26.333 -86.499 -34s-58 -11.5 -86 -11.5c-54 0 -109.5 13.167 -166.5 39.5s-114.167 69.833 -171.5 130.5z" />
    <glyph glyph-name="abreve" unicode="&#x103;" 
d="M154 821c98.667 104 219.332 155.998 361.999 155.998c60.667 0 115 -7.66699 163 -23s88.667 -39.166 122 -71.499s59 -73.333 77 -123s27 -108.834 27 -177.501v-582h-219v86c-36 -34 -78.833 -61 -128.5 -81s-99.5 -30 -149.5 -30c-56 0 -104.5 7.5 -145.5 22.5
s-74.833 35.167 -101.5 60.5s-46.5 55 -59.5 89s-19.5 69.667 -19.5 107c0 49.333 10.5 94.5 31.5 135.5s51.833 76.333 92.5 106s90.834 52.834 150.501 69.501s128.5 25 206.5 25h121c-1.33301 72.667 -16 125.334 -44 158.001s-72 49 -132 49
c-78 0 -157.333 -42.333 -238 -127zM605.998 417.998c-60 1.33301 -109.334 -2.16797 -148.001 -10.501s-69 -19.833 -91 -34.5s-37.167 -31.5 -45.5 -50.5s-12.5 -37.833 -12.5 -56.5c0 -16 3.66699 -31 11 -45s17.333 -26.167 30 -36.5s27.5 -18.666 44.5 -24.999
s35.167 -9.5 54.5 -9.5c31.333 0 59.5 5.5 84.5 16.5s46.833 24.167 65.5 39.5s34.334 31.333 47.001 48s22 31 28 43c5.33301 10 9.33301 24.833 12 44.5s4 44.5 4 74.5zM316.997 1382c28.667 -50 62.501 -86.667 101.501 -110s78.167 -35 117.5 -35
c18 0 36.5 2.33301 55.5 7s38.167 12.667 57.5 24s38.333 26.333 57 45s37 41.667 55 69l99 -147c-22.667 -28 -47.334 -52.667 -74.001 -74s-54.167 -39.5 -82.5 -54.5s-57.333 -26.333 -87 -34s-58.5 -11.5 -86.5 -11.5c-53.333 0 -108.5 13.167 -165.5 39.5
s-114.5 69.833 -172.5 130.5z" />
    <glyph glyph-name="Aogonek" unicode="&#x104;" 
d="M786 0l-116.004 329.999h-334l-100 -330h-236l424 1307h137l467 -1307l-79 -73.5c-20.667 -19 -37 -34.833 -49 -47.5s-20.333 -23 -25 -31s-7 -16 -7 -24c0 -9.33301 2.66699 -17.166 8 -23.499s13 -9.5 23 -9.5c8 0 15.667 1 23 3s15.833 6 25.5 12
s20.834 14.167 33.501 24.5s28.334 23.833 47.001 40.5v-178c-28 -21.333 -56 -37.666 -84 -48.999s-58 -17 -90 -17c-64.667 0 -112.167 14 -142.5 42s-45.5 64 -45.5 108c0 16 2 31.833 6 47.5s11.333 32.167 22 49.5s25.334 36.166 44.001 56.499
s42.334 43.5 71.001 69.5h-23zM626.996 488.999l-131 388l-123 -388h254z" />
    <glyph glyph-name="aogonek" unicode="&#x105;" 
d="M154 821c98.667 104 219.328 155.997 361.995 155.997c60.667 0 115 -7.66699 163 -23s88.667 -39.166 122 -71.499s59 -73.333 77 -123s27 -108.834 27 -177.501v-582l-79 -73.5c-20.667 -19 -37 -34.833 -49 -47.5s-20.333 -23 -25 -31s-7 -16 -7 -24
c0 -9.33301 2.66699 -17.166 8 -23.499s13 -9.5 23 -9.5c8 0 15.667 1 23 3s15.833 6 25.5 12s20.834 14.167 33.501 24.5s28.334 23.833 47.001 40.5v-178c-28 -21.333 -56 -37.666 -84 -48.999s-58 -17 -90 -17c-64.667 0 -112.167 14 -142.5 42s-45.5 64 -45.5 108
c0 16 2 31.833 6 47.5s11.333 32.167 22 49.5s25.334 36.166 44.001 56.499s42.334 43.5 71.001 69.5v86c-36 -34 -78.833 -61 -128.5 -81s-99.5 -30 -149.5 -30c-56 0 -104.5 7.5 -145.5 22.5s-74.833 35.167 -101.5 60.5s-46.5 55 -59.5 89s-19.5 69.667 -19.5 107
c0 49.333 10.5 94.5 31.5 135.5s51.833 76.333 92.5 106s90.834 52.834 150.501 69.501s128.5 25 206.5 25h121c-1.33301 72.667 -16 125.334 -44 158.001s-72 49 -132 49c-78 0 -157.333 -42.333 -238 -127zM689.994 415.997c-14 1.33301 -27.8311 1.99805 -41.498 1.99805
h-42.5c-60 0 -109.333 -4.33301 -148 -13s-69 -20.167 -91 -34.5s-37.167 -30.666 -45.5 -48.999s-12.5 -36.833 -12.5 -55.5c0 -16 3.66699 -31 11 -45s17.333 -26.167 30 -36.5s27.5 -18.666 44.5 -24.999s35.167 -9.5 54.5 -9.5c31.333 0 59.666 5.33301 84.999 16
s47.5 23.667 66.5 39s34.667 31.5 47 48.5s21.166 31.5 26.499 43.5c6 9.33301 10.167 24 12.5 44s3.5 45 3.5 75z" />
    <glyph glyph-name="Cacute" unicode="&#x106;" 
d="M791 915c-6 2 -9.99902 5.00293 -11.999 9.00293s-3.16699 8.83301 -3.5 14.5s-0.833008 12.167 -1.5 19.5s-2.66699 15 -6 23c-19.333 44 -45.333 78.5 -78 103.5s-74.334 37.5 -125.001 37.5c-40.667 0 -77.5 -11.5 -110.5 -34.5s-61.167 -55.5 -84.5 -97.5
s-41.333 -92.667 -54 -152s-19 -125 -19 -197c0 -70 6.83301 -134.5 20.5 -193.5s32.834 -110.167 57.501 -153.5s54.334 -77.166 89.001 -101.499s72.667 -36.5 114 -36.5c49.333 0 92.666 15.167 129.999 45.5s71 71.833 101 124.5l174 -113
c-48 -82.667 -106.333 -145 -175 -187s-143.334 -63 -224.001 -63c-75.333 0 -145 13.5 -209 40.5s-119.5 68.167 -166.5 123.5s-83.667 124.833 -110 208.5s-39.5 182.167 -39.5 295.5c0 83.333 7.16699 158.166 21.5 224.499s34 124.5 59 174.5s54.167 92.667 87.5 128
s68.833 64.166 106.5 86.499s76.5 38.666 116.5 48.999s79 15.5 117 15.5c48 0 94 -7 138 -21s84.5 -33.833 121.5 -59.5s70 -56.334 99 -92.001s52.833 -75.167 71.5 -118.5zM730.001 1468l-369 -129l-55 101l313 231z" />
    <glyph glyph-name="cacute" unicode="&#x107;" 
d="M799 621c-6 1.33301 -10.3311 3.83008 -12.998 7.49707s-4.66699 7.83398 -6 12.501s-2.5 9.83398 -3.5 15.501s-2.5 11.5 -4.5 17.5c-18.667 32 -45.5 58.667 -80.5 80s-77.833 32 -128.5 32c-34.667 0 -67.334 -7.5 -98.001 -22.5s-57.334 -36 -80.001 -63
s-40.667 -59.167 -54 -96.5s-20 -78.333 -20 -123c0 -45.333 6.16699 -87.166 18.5 -125.499s29.666 -71.833 51.999 -100.5s49 -51 80 -67s65.5 -24 103.5 -24c18.667 0 38.167 2.16699 58.5 6.5s40.833 11.5 61.5 21.5s41 23.167 61 39.5s39.667 36.166 59 59.499
l133 -154c-54 -60.667 -113.333 -104.167 -178 -130.5s-133 -39.5 -205 -39.5c-70 0 -134.167 12.667 -192.5 38s-108.5 60.333 -150.5 105s-74.833 97.667 -98.5 159s-35.5 128 -35.5 200c0 71.333 11.667 137.833 35 199.5s56.333 115.334 99 161.001
s93.834 81.667 153.501 108s125.5 39.5 197.5 39.5c40 0 78.667 -4 116 -12s72.5 -19.667 105.5 -35s63.167 -34.5 90.5 -57.5s51 -49.5 71 -79.5zM571.002 1462l166 -114l-215 -289l-114 67z" />
    <glyph glyph-name="Ccaron" unicode="&#x10c;" 
d="M791 915c-6 2 -9.99902 5.00293 -11.999 9.00293s-3.16699 8.83301 -3.5 14.5s-0.833008 12.167 -1.5 19.5s-2.66699 15 -6 23c-19.333 44 -45.333 78.5 -78 103.5s-74.334 37.5 -125.001 37.5c-40.667 0 -77.5 -11.5 -110.5 -34.5s-61.167 -55.5 -84.5 -97.5
s-41.333 -92.667 -54 -152s-19 -125 -19 -197c0 -70 6.83301 -134.5 20.5 -193.5s32.834 -110.167 57.501 -153.5s54.334 -77.166 89.001 -101.499s72.667 -36.5 114 -36.5c49.333 0 92.666 15.167 129.999 45.5s71 71.833 101 124.5l174 -113
c-48 -82.667 -106.333 -145 -175 -187s-143.334 -63 -224.001 -63c-75.333 0 -145 13.5 -209 40.5s-119.5 68.167 -166.5 123.5s-83.667 124.833 -110 208.5s-39.5 182.167 -39.5 295.5c0 83.333 7.16699 158.166 21.5 224.499s34 124.5 59 174.5s54.167 92.667 87.5 128
s68.833 64.166 106.5 86.499s76.5 38.666 116.5 48.999s79 15.5 117 15.5c48 0 94 -7 138 -21s84.5 -33.833 121.5 -59.5s70 -56.334 99 -92.001s52.833 -75.167 71.5 -118.5zM860.001 1550l-272 -221h-63l-258 217l77 92l215 -135l232 129z" />
    <glyph glyph-name="ccaron" unicode="&#x10d;" 
d="M799 621c-6 1.33301 -10.3311 3.83008 -12.998 7.49707s-4.66699 7.83398 -6 12.501s-2.5 9.83398 -3.5 15.501s-2.5 11.5 -4.5 17.5c-18.667 32 -45.5 58.667 -80.5 80s-77.833 32 -128.5 32c-34.667 0 -67.334 -7.5 -98.001 -22.5s-57.334 -36 -80.001 -63
s-40.667 -59.167 -54 -96.5s-20 -78.333 -20 -123c0 -45.333 6.16699 -87.166 18.5 -125.499s29.666 -71.833 51.999 -100.5s49 -51 80 -67s65.5 -24 103.5 -24c18.667 0 38.167 2.16699 58.5 6.5s40.833 11.5 61.5 21.5s41 23.167 61 39.5s39.667 36.166 59 59.499
l133 -154c-54 -60.667 -113.333 -104.167 -178 -130.5s-133 -39.5 -205 -39.5c-70 0 -134.167 12.667 -192.5 38s-108.5 60.333 -150.5 105s-74.833 97.667 -98.5 159s-35.5 128 -35.5 200c0 71.333 11.667 137.833 35 199.5s56.333 115.334 99 161.001
s93.834 81.667 153.501 108s125.5 39.5 197.5 39.5c40 0 78.667 -4 116 -12s72.5 -19.667 105.5 -35s63.167 -34.5 90.5 -57.5s51 -49.5 71 -79.5zM791.002 1348l-236 -297h-66l-235 299l119 88l155 -181l164 179z" />
    <glyph glyph-name="Dcaron" unicode="&#x10e;" 
d="M90 1276l330.001 -0.000976562c56.667 0 106.667 -4 150 -12s81.666 -19.5 114.999 -34.5s62.833 -33.5 88.5 -55.5s49.167 -47.333 70.5 -76c43.333 -58.667 76 -127.167 98 -205.5s33 -166.166 33 -263.499c0 -96.667 -10.833 -183.834 -32.5 -261.501
s-56 -143.667 -103 -198s-107.167 -96.166 -180.5 -125.499s-161.333 -44 -264 -44h-305v1276zM313.001 1085l-0.000976562 -905h78c120.667 0 209.834 38.167 267.501 114.5s86.5 185.833 86.5 328.5c0 72 -6.16699 136.5 -18.5 193.5s-32 105.5 -59 145.5
s-61.5 70.5 -103.5 91.5s-92.667 31.5 -152 31.5h-99zM777 1550l-272 -221h-63l-258 217l77 92l215 -135l232 129z" />
    <glyph glyph-name="dcaron" unicode="&#x10f;" 
d="M1059 1239c0 -46 -11.832 -95.668 -35.499 -149.001s-63.834 -114.333 -120.501 -183l-104 90c14 16 26.5 32 37.5 48s20.333 31.333 28 46s13.667 27.834 18 39.501s6.5 21.167 6.5 28.5c0 2 -2 5.33301 -6 10l-13 15c-11.333 12 -22.666 25 -33.999 39
s-17 31.667 -17 53c0 18 3 34.667 9 50s14.333 28.5 25 39.5s23.5 19.667 38.5 26s31.167 9.5 48.5 9.5c15.333 0 30.166 -4 44.499 -12s27 -19 38 -33s19.833 -31 26.5 -51s10 -42 10 -66zM772.001 114.999c0 -16.667 1.83301 -34.833 5.5 -54.5
s8.16699 -39.834 13.5 -60.501h-211c-8.66699 6 -14.334 15 -17.001 27s-4 22.667 -4 32v29c-9.33301 -18 -21.666 -34.333 -36.999 -49s-32.166 -27.167 -50.499 -37.5s-37.5 -18.333 -57.5 -24s-39.333 -8.5 -58 -8.5c-51.333 0 -100.166 10.167 -146.499 30.5
s-86.833 51 -121.5 92s-62.167 92.333 -82.5 154s-30.5 134.167 -30.5 217.5c0 80.667 10.5 152.834 31.5 216.501s49.167 117.5 84.5 161.5s75.666 77.667 120.999 101s92.666 35 141.999 35c16.667 0 34.5 -2.66699 53.5 -8s37.333 -12.5 55 -21.5s34 -19.333 49 -31
s27.5 -23.5 37.5 -35.5v501h252c0 -7.33301 -1.33301 -13.333 -4 -18s-5.66699 -9 -9 -13l-10 -12.5c-3.33301 -4.33301 -5.33301 -9.5 -6 -15.5v-1208zM551.001 489c0 40 -2 78.167 -6 114.5s-11.667 68.5 -23 96.5s-27.166 50.167 -47.499 66.5s-46.833 24.5 -79.5 24.5
c-40 0 -72.167 -8.83301 -96.5 -26.5s-43.333 -41.5 -57 -71.5s-22.834 -64.5 -27.501 -103.5s-7 -79.833 -7 -122.5c0 -57.333 5.5 -105.5 16.5 -144.5s25.167 -70.5 42.5 -94.5s36.833 -41.333 58.5 -52s43.167 -16 64.5 -16c26 0 49.167 6 69.5 18s37.333 31.167 51 57.5
s24 60.333 31 102s10.5 92.167 10.5 151.5z" />
    <glyph glyph-name="Dcroat" unicode="&#x110;" 
d="M90 580l-79.999 -0.000976562v188h80v508h330c56.667 0 106.667 -4 150 -12s81.666 -19.5 114.999 -34.5s62.833 -33.5 88.5 -55.5s49.167 -47.333 70.5 -76c43.333 -58.667 76 -127.167 98 -205.5s33 -166.166 33 -263.499c0 -96.667 -10.833 -183.834 -32.5 -261.501
s-56 -143.667 -103 -198s-107.167 -96.166 -180.5 -125.499s-161.333 -44 -264 -44h-305v580zM313.001 1085l-0.000976562 -317h193v-188h-193v-400h78c120.667 0 209.834 38.167 267.501 114.5s86.5 185.833 86.5 328.5c0 72 -6.16699 136.5 -18.5 193.5
s-32 105.5 -59 145.5s-61.5 70.5 -103.5 91.5s-92.667 31.5 -152 31.5h-99z" />
    <glyph glyph-name="dcroat" unicode="&#x111;" 
d="M918 115c0 -16.667 1.66992 -34.833 5.00293 -54.5s7.66602 -39.834 12.999 -60.501h-217c-8.66699 6 -14.334 15 -17.001 27s-4 22.667 -4 32v29c-10.667 -19.333 -24.834 -36.333 -42.501 -51s-36.834 -27 -57.501 -37s-42.167 -17.667 -64.5 -23s-43.833 -8 -64.5 -8
c-56 0 -108.667 10.167 -158 30.5s-92.5 51 -129.5 92s-66.333 92.333 -88 154s-32.5 134.167 -32.5 217.5c0 80.667 11 152.834 33 216.501s51.667 117.5 89 161.5s80.5 77.667 129.5 101s100.5 35 154.5 35c18.667 0 38 -2.33301 58 -7s39.833 -11.167 59.5 -19.5
s38.334 -18.5 56.001 -30.5s33.5 -25 47.5 -39v194h-131v176h131v131h258c0 -7.33301 -1.33301 -13.333 -4 -18s-5.5 -9 -8.5 -13l-9.5 -12.5c-3.33301 -4.33301 -5.33301 -9.5 -6 -15.5v-72h88v-176h-88v-960zM690.003 489.001c0 40 -2.66602 78.167 -7.99902 114.5
s-14.666 68.5 -27.999 96.5s-31.833 50.167 -55.5 66.5s-53.834 24.5 -90.501 24.5c-32 0 -58.5 -5.16699 -79.5 -15.5s-40.833 -25.833 -59.5 -46.5c-50.667 -54 -76 -141.333 -76 -262c0 -57.333 6.5 -105.5 19.5 -144.5s29.833 -70.5 50.5 -94.5s43.167 -41.333 67.5 -52
s48.166 -16 71.499 -16c28.667 0 54.5 6 77.5 18s42.667 31.167 59 57.5s29 60.333 38 102s13.5 92.167 13.5 151.5z" />
    <glyph glyph-name="Eogonek" unicode="&#x118;" 
d="M115 1276l831 -0.000976562v-197h-608v-315h504v-201h-504v-366h604v-197l-79 -73.5c-20.667 -19 -37 -34.833 -49 -47.5s-20.333 -23 -25 -31s-7 -16 -7 -24c0 -9.33301 2.66699 -17.166 8 -23.499s13 -9.5 23 -9.5c8 0 15.667 1 23 3s15.833 6 25.5 12
s20.834 14.167 33.501 24.5s28.334 23.833 47.001 40.5v-178c-28 -21.333 -56 -37.666 -84 -48.999s-58 -17 -90 -17c-64.667 0 -112.167 14 -142.5 42s-45.5 64 -45.5 108c0 16 3.16699 31.833 9.5 47.5s16.166 32.167 29.499 49.5s30.166 36.166 50.499 56.499
s44.833 43.5 73.5 69.5h-628v1276z" />
    <glyph glyph-name="eogonek" unicode="&#x119;" 
d="M528 977c56.667 0 109.666 -10.002 158.999 -30.002s92.5 -49.5 129.5 -88.5s66.167 -87.667 87.5 -146s32 -125.833 32 -202.5c0 -16.667 -0.666992 -33 -2 -49l-4 -47h-627c5.33301 -46 16 -85.5 32 -118.5s35.333 -60.333 58 -82s47.834 -37.667 75.501 -48
s55.834 -15.5 84.501 -15.5c43.333 0 85.833 9.83301 127.5 29.5s77.5 48.5 107.5 86.5l127 -129l-127 -168c-22.667 -30 -38.5 -55.667 -47.5 -77s-13.5 -38.666 -13.5 -51.999c0 -19.333 5.66699 -32.333 17 -39s22 -10 32 -10c8 0 16.167 1 24.5 3
s17.5 5.83301 27.5 11.5s21.333 13.667 34 24s27 24.166 43 41.499v-178c-28 -21.333 -56 -37.666 -84 -48.999s-58 -17 -90 -17c-64.667 0 -112.167 14 -142.5 42s-45.5 64 -45.5 108c0 61.333 46.333 136.333 139 225c-12 -5.33301 -25.167 -10 -39.5 -14
s-29 -7.66699 -44 -11s-29.5 -5.83301 -43.5 -7.5s-26.333 -2.5 -37 -2.5c-63.333 0 -121.833 11.333 -175.5 34s-100.334 55.334 -140.001 98.001s-70.667 94.834 -93 156.501s-33.5 131.5 -33.5 209.5c0 79.333 11.333 150.666 34 213.999s54.167 117 94.5 161
s88 77.833 143 101.5s115.167 35.5 180.5 35.5zM706.999 581.998c0 30 -4.49902 58.499 -13.499 85.499s-21.667 50.667 -38 71s-36.333 36.5 -60 48.5s-50.167 18 -79.5 18c-28 0 -53.833 -5.33301 -77.5 -16s-44.334 -25.667 -62.001 -45s-32 -42.666 -43 -69.999
s-18.5 -58 -22.5 -92h396z" />
    <glyph glyph-name="Ecaron" unicode="&#x11a;" 
d="M115 1276h831v-197h-608v-315h504v-201h-504v-366h604v-197h-827v1276zM827 1550l-272 -221h-63l-258 217l77 92l215 -135l232 129z" />
    <glyph glyph-name="ecaron" unicode="&#x11b;" 
d="M528 977c56.667 0 109.665 -10.001 158.998 -30.001s92.5 -49.5 129.5 -88.5s66.167 -87.667 87.5 -146s32 -125.833 32 -202.5c0 -16.667 -0.666992 -33 -2 -49l-4 -47h-627c5.33301 -46 16 -85.5 32 -118.5s35.333 -60.333 58 -82s47.834 -37.667 75.501 -48
s55.834 -15.5 84.501 -15.5c43.333 0 85.833 9.83301 127.5 29.5s77.5 48.5 107.5 86.5l127 -127c-96.667 -114.667 -217.334 -172 -362.001 -172c-68.667 0 -132.167 11.333 -190.5 34s-108.666 55.334 -150.999 98.001s-75.5 94.834 -99.5 156.501s-36 131.5 -36 209.5
c0 79.333 11.333 150.666 34 213.999s54.167 117 94.5 161s88 77.833 143 101.5s115.167 35.5 180.5 35.5zM706.998 581.999c0 30 -4.49902 58.499 -13.499 85.499s-21.667 50.667 -38 71s-36.333 36.5 -60 48.5s-50.167 18 -79.5 18c-28 0 -53.833 -5.33301 -77.5 -16
s-44.334 -25.667 -62.001 -45s-32 -42.666 -43 -69.999s-18.5 -58 -22.5 -92h396zM790.999 1348l-236 -297h-66l-235 299l119 88l155 -181l164 179z" />
    <glyph glyph-name="Gbreve" unicode="&#x11e;" 
d="M813 913c-12 5.33301 -21.666 10.498 -28.999 15.498s-13 10.167 -17 15.5s-7.16699 10.666 -9.5 15.999l-7.5 17c-8 18.667 -18.833 36.167 -32.5 52.5s-29.167 30.833 -46.5 43.5s-36.333 22.667 -57 30s-42.334 11 -65.001 11c-34 0 -67.667 -8.16699 -101 -24.5
s-63.166 -42.833 -89.499 -79.5s-47.666 -84.167 -63.999 -142.5s-24.5 -129.833 -24.5 -214.5c0 -77.333 7 -146.666 21 -207.999s33.667 -113.166 59 -155.499s55.166 -74.833 89.499 -97.5s72.166 -34 113.499 -34c30.667 0 62 3.66699 94 11s61.333 21.333 88 42v240
h-217v194h434v-536c-61.333 -51.333 -124.5 -88.5 -189.5 -111.5s-134.833 -34.5 -209.5 -34.5c-83.333 0 -157.333 16.5 -222 49.5s-119 79.333 -163 139s-77.5 130.834 -100.5 213.501s-34.5 174 -34.5 274c0 89.333 8.5 168 25.5 236s39.5 126.833 67.5 176.5
s60.167 91 96.5 124s73.666 59.333 111.999 79s76.5 33.667 114.5 42s72.667 12.5 104 12.5c43.333 0 84.833 -6 124.5 -18s76.834 -29 111.501 -51s66 -48.333 94 -79s52.333 -64.667 73 -102zM322.001 1667c28.667 -50.667 62.5 -87.667 101.5 -111s78.167 -35 117.5 -35
c18 0 36.333 2.33301 55 7s37.667 12.667 57 24s38.5 26.333 57.5 45s37.5 42 55.5 70l98 -148c-22.667 -27.333 -47.334 -51.833 -74.001 -73.5s-54.167 -40 -82.5 -55s-57.166 -26.333 -86.499 -34s-58 -11.5 -86 -11.5c-54 0 -109.5 13.167 -166.5 39.5
s-114.167 69.833 -171.5 130.5z" />
    <glyph glyph-name="gbreve" unicode="&#x11f;" 
d="M475 809c-20.667 0 -39.833 -3.66602 -57.5 -10.999s-33.167 -17.833 -46.5 -31.5s-23.833 -30.334 -31.5 -50.001s-11.5 -42.167 -11.5 -67.5c0 -21.333 3.5 -41.333 10.5 -60s16.833 -35 29.5 -49s28 -25.167 46 -33.5s38.333 -12.5 61 -12.5
c23.333 0 44.333 4.16699 63 12.5s34.5 19.5 47.5 33.5s22.833 30.333 29.5 49s10 38.667 10 60s-3.33301 41.666 -10 60.999s-16.5 36.333 -29.5 51s-28.833 26.334 -47.5 35.001s-39.667 13 -63 13zM479.001 985.001c83.333 0 154.335 -22.3359 213.002 -67.0029
c30 20 62.333 35.167 97 45.5s72.667 15.5 114 15.5h66l30 -195c-12.667 2 -25.167 3.66699 -37.5 5s-23.333 2.66602 -33 3.99902s-17.834 2.33301 -24.501 3s-10.334 1 -11.001 1c-28.667 0 -58 -5.66699 -88 -17c9.33301 -21.333 17.166 -43.166 23.499 -65.499
s9.5 -44.833 9.5 -67.5c0 -45.333 -9.5 -88 -28.5 -128s-44.833 -75 -77.5 -105s-70.834 -53.667 -114.501 -71s-90.5 -26 -140.5 -26c-13.333 0 -27 0.666992 -41 2s-28.333 4.33301 -43 9c-18.667 -12.667 -33.5 -25 -44.5 -37s-16.5 -25.667 -16.5 -41
c0 -18.667 9.66699 -31.167 29 -37.5s44.333 -9.5 75 -9.5c23.333 0 47.666 1 72.999 3s48.333 3 69 3c67.333 0 124.5 -6.33301 171.5 -19s85 -30.5 114 -53.5s50 -50.167 63 -81.5s19.5 -66 19.5 -104c0 -39.333 -9.16699 -77.166 -27.5 -113.499
s-45.833 -68.833 -82.5 -97.5s-82.667 -51.5 -138 -68.5s-120 -25.5 -194 -25.5c-77.333 0 -143.666 6.5 -198.999 19.5s-100.666 30.667 -135.999 53s-61.333 48.333 -78 78s-25 61.167 -25 94.5c0 16.667 3 33.834 9 51.501s14.5 34.834 25.5 51.501
s24.167 32.334 39.5 47.001s32 27.667 50 39c-23.333 16.667 -39.333 36.5 -48 59.5s-13 46.167 -13 69.5c0 32 11 64.333 33 97s50 63 84 91c-20.667 12.667 -39 28.334 -55 47.001s-29.667 38.667 -41 60s-20 43.666 -26 66.999s-9 46.666 -9 69.999
c0 48 10.167 93 30.5 135s47.5 78.5 81.5 109.5s72.833 55.333 116.5 73s88.834 26.5 135.501 26.5zM616.003 19.998c-49.333 0 -94.9971 0.334961 -136.997 1.00195s-85.667 2.66699 -131 6c-24.667 -14.667 -42.834 -31.834 -54.501 -51.501s-17.5 -38.167 -17.5 -55.5
c0 -19.333 6.16699 -35.5 18.5 -48.5s29.166 -23.667 50.499 -32s46 -14.333 74 -18s57.667 -5.5 89 -5.5c32.667 0 62.667 2.83301 90 8.5s51 13.667 71 24s35.667 22.666 47 36.999s17.666 30.5 18.999 48.5c-2 25.333 -12 46 -30 62s-47.667 24 -89 24zM317.006 1382
c28.667 -50 62.501 -86.667 101.501 -110s78.167 -35 117.5 -35c18 0 36.5 2.33301 55.5 7s38.167 12.667 57.5 24s38.333 26.333 57 45s37 41.667 55 69l99 -147c-22.667 -28 -47.334 -52.667 -74.001 -74s-54.167 -39.5 -82.5 -54.5s-57.333 -26.333 -87 -34
s-58.5 -11.5 -86.5 -11.5c-53.333 0 -108.5 13.167 -165.5 39.5s-114.5 69.833 -172.5 130.5z" />
    <glyph glyph-name="Idotaccent" unicode="&#x130;" 
d="M162 1276h712v-191h-247v-897h258v-188h-735v190h247v895h-235v191zM528 1667c19.333 0 37.833 -3.50098 55.5 -10.501s33.167 -16.5 46.5 -28.5s24 -26 32 -42s12 -33.333 12 -52s-4 -36 -12 -52s-18.667 -30 -32 -42s-28.833 -21.5 -46.5 -28.5
s-36.167 -10.5 -55.5 -10.5c-18.667 0 -36.667 3.5 -54 10.5s-32.5 16.5 -45.5 28.5s-23.5 26 -31.5 42s-12 33.333 -12 52c0 16 3.33301 32 10 48s16.167 30.333 28.5 43s27.333 22.834 45 30.501s37.5 11.5 59.5 11.5z" />
    <glyph glyph-name="dotlessi" unicode="&#x131;" 
d="M193 956h448v-772h209v-184h-668v184h230v588h-219v184z" />
    <glyph glyph-name="kgreenlandic" unicode="&#x138;" 
d="M123 958h259.999c0 -8 -1.33301 -14.333 -4 -19s-5.66699 -8.66699 -9 -12s-6.66602 -7 -9.99902 -11s-5.33301 -9 -6 -15v-297l367 363c48.667 -11.333 87.667 -17 117 -17h149l-391 -377c34 -40.667 69.667 -86.167 107 -136.5l112.5 -152.5l111 -150.5l101.5 -131.5
l-280 -10l-316 440l-78 -74v-358h-231v958z" />
    <glyph glyph-name="Lacute" unicode="&#x139;" 
d="M940 193v-192.999h-815v1276h250c2.66699 -2.66699 4 -6 4 -10c0 -5.33301 -2.5 -11.833 -7.5 -19.5s-8.83301 -21.834 -11.5 -42.501v-1011h580zM730 1468l-369 -129l-55 101l313 231z" />
    <glyph glyph-name="lacute" unicode="&#x13a;" 
d="M150 1382h479v-1204h262v-178h-754v178h262v1026h-249v178zM730 1556l-369 -129l-55 101l313 231z" />
    <glyph glyph-name="Lcaron" unicode="&#x13d;" 
d="M940 193v-192.999h-815v1276h250c2.66699 -2.66699 4 -6 4 -10c0 -5.33301 -2.5 -11.833 -7.5 -19.5s-8.83301 -21.834 -11.5 -42.501v-1011h580zM906 1157c0 -91.333 -68.333 -205.331 -205 -341.998l-119 103c16.667 16 32.167 31.833 46.5 47.5s26.5 30.667 36.5 45
s17.833 27.166 23.5 38.499s8.5 20.666 8.5 27.999c0 2 -2.16699 5.33301 -6.5 10l-14.5 15c-14 12 -27 25 -39 39s-18 31.667 -18 53c0 18 3.33301 34.667 10 50s16.167 28.5 28.5 39.5s26.833 19.667 43.5 26s35 9.5 55 9.5c19.333 0 38 -4 56 -12s34 -19 48 -33
s25.167 -31 33.5 -51s12.5 -42 12.5 -66z" />
    <glyph glyph-name="lcaron" unicode="&#x13e;" 
d="M116 1382h479v-1204h262v-178h-754v178h262v1026h-249v178zM1004 1239c0 -91.333 -68.333 -205.333 -205 -342l-119 102c16.667 16 32.167 32 46.5 48s26.5 31 36.5 45s17.833 26.833 23.5 38.5s8.5 21.167 8.5 28.5c0 2 -2.16699 5.33301 -6.5 10l-14.5 15
c-14 12 -27 25 -39 39s-18 31.667 -18 53c0 18 3.33301 34.667 10 50s16.167 28.5 28.5 39.5s26.833 19.667 43.5 26s35 9.5 55 9.5c19.333 0 38 -4 56 -12s34 -19 48 -33s25.167 -31 33.5 -51s12.5 -42 12.5 -66z" />
    <glyph glyph-name="Lslash" unicode="&#x141;" 
d="M940 195l0.00195312 -192.999h-815v451l-115 -37v194l115 37v629h250c2.66699 -2.66699 4 -6 4 -10c0 -5.33301 -2.5 -11.833 -7.5 -19.5s-8.83301 -21.834 -11.5 -42.501v-480l283 93c13.333 6 26.166 13 38.499 21s24.166 16.667 35.499 26v-219l-357 -116v-334h580z
" />
    <glyph glyph-name="lslash" unicode="&#x142;" 
d="M150 1382h479v-579l57 20c8 4 20.667 11.167 38 21.5l77 46.5v-232l-172 -58v-423h262v-178h-754v178h262v346l-151 -51v199l151 52v480h-249v178z" />
    <glyph glyph-name="Nacute" unicode="&#x143;" 
d="M958 0l-253 0.000976562l-433 965v-965h-206v1276h280l406 -914v914h221c2.66699 -2.66699 4 -6 4 -10c0 -5.33301 -2.5 -11.833 -7.5 -19.5s-8.83301 -21.834 -11.5 -42.501v-1204zM730 1468l-369 -129l-55 101l313 231z" />
    <glyph glyph-name="nacute" unicode="&#x144;" 
d="M123 0l0.000976562 955.999h231v-98c33.333 36 72 64.833 116 86.5s88.667 32.5 134 32.5c48 0 91.667 -7.33301 131 -22s72.833 -37.834 100.5 -69.501s49 -72.667 64 -123s22.5 -111.166 22.5 -182.499v-580h-226v578c0 36.667 -3.33301 68.334 -10 95.001
s-16 48.5 -28 65.5s-26.333 29.5 -43 37.5s-35.334 12 -56.001 12c-28.667 0 -55.5 -5.66699 -80.5 -17s-46.667 -27.333 -65 -48s-32.833 -45.5 -43.5 -74.5s-16 -60.833 -16 -95.5v-553h-231zM571.001 1462l166 -114l-215 -289l-114 67z" />
    <glyph glyph-name="Ncaron" unicode="&#x147;" 
d="M958 0l-253 0.000976562l-433 965v-965h-206v1276h280l406 -914v914h221c2.66699 -2.66699 4 -6 4 -10c0 -5.33301 -2.5 -11.833 -7.5 -19.5s-8.83301 -21.834 -11.5 -42.501v-1204zM827 1550l-272 -221h-63l-258 217l77 92l215 -135l232 129z" />
    <glyph glyph-name="ncaron" unicode="&#x148;" 
d="M123 0l0.000976562 955.999h231v-98c33.333 36 72 64.833 116 86.5s88.667 32.5 134 32.5c48 0 91.667 -7.33301 131 -22s72.833 -37.834 100.5 -69.501s49 -72.667 64 -123s22.5 -111.166 22.5 -182.499v-580h-226v578c0 36.667 -3.33301 68.334 -10 95.001
s-16 48.5 -28 65.5s-26.333 29.5 -43 37.5s-35.334 12 -56.001 12c-28.667 0 -55.5 -5.66699 -80.5 -17s-46.667 -27.333 -65 -48s-32.833 -45.5 -43.5 -74.5s-16 -60.833 -16 -95.5v-553h-231zM791.001 1348l-236 -297h-66l-235 299l119 88l155 -181l164 179z" />
    <glyph glyph-name="Eng" unicode="&#x14a;" 
d="M598 158c68 0 102.002 63.333 102.002 190v512c0 46.667 -3.83301 86 -11.5 118s-18.167 57.667 -31.5 77s-29.333 33.333 -48 42s-39.334 13 -62.001 13c-29.333 0 -58.333 -6.66699 -87 -20s-54.334 -31.666 -77.001 -54.999s-41 -51.333 -55 -84
s-21 -68.334 -21 -107.001v-844h-237v1276h237v-94c36 36 76.333 65.833 121 89.5s91.667 35.5 141 35.5c58.667 0 110.5 -8.5 155.5 -25.5s82.833 -43.5 113.5 -79.5s54 -82 70 -138s24 -122.667 24 -200v-508c0 -66 -7.83301 -123.667 -23.5 -173
s-38.334 -90.5 -68.001 -123.5s-65.5 -57.667 -107.5 -74s-89 -24.5 -141 -24.5c-36 0 -72.667 6.16699 -110 18.5s-76.333 30.833 -117 55.5l106 186c12 0 22.333 -6.66699 31 -20c6 -10.667 16.833 -20.5 32.5 -29.5s36.834 -13.5 63.501 -13.5z" />
    <glyph glyph-name="eng" unicode="&#x14b;" 
d="M123 0l0.00195312 956h231v-98c33.333 36 72 64.833 116 86.5s88.667 32.5 134 32.5c48 0 91.667 -7.33301 131 -22s72.833 -37.834 100.5 -69.501s49 -72.667 64 -123s22.5 -111.166 22.5 -182.499v-471c0 -83.333 -9.16699 -155 -27.5 -215
s-43.833 -109.333 -76.5 -148s-71.334 -67.167 -116.001 -85.5s-93 -27.5 -145 -27.5c-78.667 0 -158 31 -238 93l103 200c10 -3.33301 17.167 -8.5 21.5 -15.5s10.833 -16.167 19.5 -27.5c2.66699 -4 7 -8.66699 13 -14s13.167 -10.5 21.5 -15.5
s17.833 -9.16699 28.5 -12.5s22.334 -5 35.001 -5c45.333 0 79.166 20.667 101.499 62s33.5 104.666 33.5 189.999v490c0 36.667 -3.33301 68.334 -10 95.001s-16 48.5 -28 65.5s-26.333 29.5 -43 37.5s-35.334 12 -56.001 12c-28.667 0 -55.5 -5.66699 -80.5 -17
s-46.667 -27.333 -65 -48s-32.833 -45.5 -43.5 -74.5s-16 -60.833 -16 -95.5v-553h-231z" />
    <glyph glyph-name="omacron" unicode="&#x14d;" 
d="M520 977c62 0 120.004 -11.333 174.004 -34s101.167 -55.5 141.5 -98.5s72 -95.833 95 -158.5s34.5 -133.667 34.5 -213s-11.333 -150.333 -34 -213s-53.834 -115.667 -93.501 -159s-86.834 -76.5 -141.501 -99.5s-114 -34.5 -178 -34.5s-123.833 12.333 -179.5 37
s-104.334 59.334 -146.001 104.001s-74.334 97.667 -98.001 159s-35.5 128.666 -35.5 201.999c0 72.667 12.167 140 36.5 202s57.5 115.667 99.5 161s90.833 80.833 146.5 106.5s115.167 38.5 178.5 38.5zM737.004 469c0 52 -5.5 97.999 -16.5 137.999
s-26.5 73.833 -46.5 101.5s-43.667 48.667 -71 63s-57 21.5 -89 21.5c-32.667 0 -62.5 -7.16699 -89.5 -21.5s-50 -35.166 -69 -62.499s-33.833 -60.5 -44.5 -99.5s-16 -83.167 -16 -132.5s5.16699 -93.833 15.5 -133.5s25.166 -73.5 44.499 -101.5s42.833 -49.667 70.5 -65
s58.5 -23 92.5 -23c66.667 0 119.834 27 159.501 81s59.5 132 59.5 234zM221.004 1313h574v-180h-574v180z" />
    <glyph glyph-name="Ohungarumlaut" unicode="&#x150;" 
d="M514 -37c-75.333 0 -142.667 16.833 -202 50.5s-109.5 80.667 -150.5 141s-72.333 132 -94 215s-32.5 173.5 -32.5 271.5c0 98.667 11.167 189 33.5 271s54.333 152.333 96 211s92.167 104.334 151.5 137.001s126 49 200 49c64 0 124.667 -13.667 182 -41
s107.5 -68.666 150.5 -123.999s77.167 -125 102.5 -209s38 -182.667 38 -296c0 -82 -6.33301 -155.667 -19 -221s-30 -123 -52 -173s-48 -92.833 -78 -128.5s-62.667 -64.834 -98 -87.501s-72.333 -39.334 -111 -50.001s-77.667 -16 -117 -16zM271.999 653
c0 -78 6.00195 -146.995 18.002 -206.995s28.833 -110.333 50.5 -151s47.334 -71.334 77.001 -92.001s62.5 -31 98.5 -31c30.667 0 60.167 7.66699 88.5 23s53.166 41.333 74.499 78s38.5 85.167 51.5 145.5s19.5 135.166 19.5 224.499c0 85.333 -7 157.333 -21 216
s-32 106.167 -54 142.5s-46.833 62.5 -74.5 78.5s-55.167 24 -82.5 24c-32.667 0 -63.834 -7.33301 -93.501 -22s-55.834 -39.334 -78.501 -74.001s-40.667 -80.834 -54 -138.501s-20 -129.834 -20 -216.501zM838.001 1686l118 -170l-317 -209l-78 98zM471.001 1686
l119 -170l-318 -209l-77 98z" />
    <glyph glyph-name="ohungarumlaut" unicode="&#x151;" 
d="M520 977c62 0 120.004 -11.333 174.004 -34s101.167 -55.5 141.5 -98.5s72 -95.833 95 -158.5s34.5 -133.667 34.5 -213s-11.333 -150.333 -34 -213s-53.834 -115.667 -93.501 -159s-86.834 -76.5 -141.501 -99.5s-114 -34.5 -178 -34.5s-123.833 12.333 -179.5 37
s-104.334 59.334 -146.001 104.001s-74.334 97.667 -98.001 159s-35.5 128.666 -35.5 201.999c0 72.667 12.167 140 36.5 202s57.5 115.667 99.5 161s90.833 80.833 146.5 106.5s115.167 38.5 178.5 38.5zM737.004 469c0 52 -5.5 97.999 -16.5 137.999
s-26.5 73.833 -46.5 101.5s-43.667 48.667 -71 63s-57 21.5 -89 21.5c-32.667 0 -62.5 -7.16699 -89.5 -21.5s-50 -35.166 -69 -62.499s-33.833 -60.5 -44.5 -99.5s-16 -83.167 -16 -132.5s5.16699 -93.833 15.5 -133.5s25.166 -73.5 44.499 -101.5s42.833 -49.667 70.5 -65
s58.5 -23 92.5 -23c66.667 0 119.834 27 159.501 81s59.5 132 59.5 234zM412.004 1462l166 -114l-216 -289l-114 67zM729.004 1462l166 -114l-215 -289l-115 67z" />
    <glyph glyph-name="OE" unicode="&#x152;" 
d="M369 1294c18.667 0 39 -3.99902 61 -11.999s41.667 -19.667 59 -35v31h521v-197h-318v-317h269v-199h-269v-368h314v-197h-519v33c-18 -14.667 -38.5 -26.167 -61.5 -34.5s-44.167 -12.5 -63.5 -12.5c-54 0 -102.833 13 -146.5 39s-81 65.667 -112 119
s-55 121.166 -72 203.499s-25.5 179.5 -25.5 291.5c0 216.667 31.5 380 94.5 490s152.5 165 268.5 165zM369 1104c-20.667 0 -39.668 -7.49805 -57.001 -22.498s-32.5 -40.167 -45.5 -75.5s-23.167 -82.833 -30.5 -142.5s-11 -133.834 -11 -222.501
c0 -146.667 12.833 -259.834 38.5 -339.501s66.167 -119.5 121.5 -119.5c25.333 0 46 10 62 30s26 47.667 30 83v682c-7.33301 36 -19.666 66.167 -36.999 90.5s-41 36.5 -71 36.5z" />
    <glyph glyph-name="oe" unicode="&#x153;" 
d="M344 973c18 0 35.4941 -2.50098 52.4941 -7.50098s33.333 -11.5 49 -19.5s30.167 -17.333 43.5 -28s25 -21.667 35 -33c10.667 10.667 23 21.334 37 32.001s29.167 20.167 45.5 28.5s33.333 15 51 20s35.5 7.5 53.5 7.5c46.667 0 88.667 -8.66699 126 -26
s69 -42.833 95 -76.5s45.833 -74.834 59.5 -123.501s20.5 -104.334 20.5 -167.001v-156h-430c0.666992 -52 4.83398 -95 12.501 -129s18.167 -61.167 31.5 -81.5s29.166 -34.666 47.499 -42.999s38.833 -12.5 61.5 -12.5c18 0 34.333 2.33301 49 7s28.834 11.5 42.501 20.5
s27.5 20 41.5 33s29 28.167 45 45.5l119 -149c-44 -45.333 -89.5 -81 -136.5 -107s-98.5 -39 -154.5 -39c-19.333 0 -39.666 2.33301 -60.999 7s-42.166 10.834 -62.499 18.501s-39.166 16.5 -56.499 26.5s-31.666 20.667 -42.999 32
c-23.333 -23.333 -51.166 -42.833 -83.499 -58.5s-66.5 -23.5 -102.5 -23.5c-39.333 0 -78.333 8 -117 24s-73.5 43.167 -104.5 81.5s-56.167 89.833 -75.5 154.5s-29 146 -29 244c0 90 9.5 166.667 28.5 230s44.167 114.833 75.5 154.5s67.333 68.5 108 86.5
s82.667 27 126 27zM687.994 794.999c-33.333 0 -58.5 -17.1689 -75.5 -51.502s-26.5 -80.166 -28.5 -137.499h221c-1.33301 68.667 -11.333 117.334 -30 146.001s-47.667 43 -87 43zM341.994 783.997c-17.333 0 -33.667 -5.50391 -49 -16.5039s-29 -28.167 -41 -51.5
s-21.5 -53.166 -28.5 -89.499s-10.5 -79.833 -10.5 -130.5c0 -108 11.667 -190.333 35 -247s56.666 -85 99.999 -85c15.333 0 27.333 4 36 12s13 17.667 13 29c0 2 -0.5 5.83301 -1.5 11.5s-2.5 14.834 -4.5 27.501c-7.33301 43.333 -12.166 86.833 -14.499 130.5
s-3.5 83.5 -3.5 119.5c0 56.667 1.5 103.334 4.5 140.001s6.16699 63.667 9.5 81c1.33301 6 2 10.167 2 12.5v5.5c0 12.667 -3.66699 24.334 -11 35.001s-19.333 16 -36 16z" />
    <glyph glyph-name="Racute" unicode="&#x154;" 
d="M96 1276l404.001 -0.000976562c79.333 0 147.166 -9.16699 203.499 -27.5s102.5 -44.166 138.5 -77.499s62.333 -73.333 79 -120s25 -98.667 25 -156c0 -34.667 -5.83301 -69.667 -17.5 -105s-28 -68.5 -49 -99.5s-46.667 -58.333 -77 -82s-63.833 -41.5 -100.5 -53.5
l299 -555h-258l-264 528h-149v-528h-234v1276zM330.001 1073v-349.999h184c34 0 63.5 4.16699 88.5 12.5s45.5 20 61.5 35s27.833 33.167 35.5 54.5s11.5 44.666 11.5 69.999c0 60 -15.667 104.667 -47 134s-81.333 44 -150 44h-184zM730.001 1468l-369 -129l-55 101
l313 231z" />
    <glyph glyph-name="racute" unicode="&#x155;" 
d="M182 956l236.002 0.00292969v-104c15.333 17.333 32.666 33.666 51.999 48.999s40 28.666 62 39.999s45.167 20.166 69.5 26.499s49.166 9.5 74.499 9.5c54 0 105.5 -8.5 154.5 -25.5s92.5 -43.5 130.5 -79.5l-107 -223c-33.333 46 -65.333 79.667 -96 101
s-61.334 32 -92.001 32c-35.333 0 -68.166 -7.5 -98.499 -22.5s-57 -35.333 -80 -61s-41 -55.667 -54 -90s-19.5 -70.5 -19.5 -108.5v-500h-232v956zM571.002 1462l166 -114l-215 -289l-114 67z" />
    <glyph glyph-name="Rcaron" unicode="&#x158;" 
d="M96 1276l404.001 -0.000976562c79.333 0 147.166 -9.16699 203.499 -27.5s102.5 -44.166 138.5 -77.499s62.333 -73.333 79 -120s25 -98.667 25 -156c0 -34.667 -5.83301 -69.667 -17.5 -105s-28 -68.5 -49 -99.5s-46.667 -58.333 -77 -82s-63.833 -41.5 -100.5 -53.5
l299 -555h-258l-264 528h-149v-528h-234v1276zM330.001 1073v-349.999h184c34 0 63.5 4.16699 88.5 12.5s45.5 20 61.5 35s27.833 33.167 35.5 54.5s11.5 44.666 11.5 69.999c0 60 -15.667 104.667 -47 134s-81.333 44 -150 44h-184zM827.001 1550l-272 -221h-63l-258 217
l77 92l215 -135l232 129z" />
    <glyph glyph-name="rcaron" unicode="&#x159;" 
d="M182 956l236.002 0.00292969v-104c15.333 17.333 32.666 33.666 51.999 48.999s40 28.666 62 39.999s45.167 20.166 69.5 26.499s49.166 9.5 74.499 9.5c54 0 105.5 -8.5 154.5 -25.5s92.5 -43.5 130.5 -79.5l-107 -223c-33.333 46 -65.333 79.667 -96 101
s-61.334 32 -92.001 32c-35.333 0 -68.166 -7.5 -98.499 -22.5s-57 -35.333 -80 -61s-41 -55.667 -54 -90s-19.5 -70.5 -19.5 -108.5v-500h-232v956zM791.002 1348l-236 -297h-66l-235 299l119 88l155 -181l164 179z" />
    <glyph glyph-name="Sacute" unicode="&#x15a;" 
d="M780 946c-10 0.666992 -17.166 2.66992 -21.499 6.00293s-7.66602 7.66602 -9.99902 12.999s-4.16602 11.166 -5.49902 17.499s-4 12.5 -8 18.5c-22.667 34 -54.334 62.333 -95.001 85s-88.667 34 -144 34c-24 0 -45.833 -3.83301 -65.5 -11.5s-36.334 -18 -50.001 -31
s-24.167 -28 -31.5 -45s-11 -34.833 -11 -53.5c0 -22 3.83301 -42.833 11.5 -62.5s21.667 -39 42 -58s48 -38.167 83 -57.5s79.5 -40 133.5 -62c64.667 -26 118.5 -53.167 161.5 -81.5s77.333 -58.333 103 -90s43.667 -65.334 54 -101.001s15.5 -73.834 15.5 -114.501
c0 -48 -8.16699 -95.333 -24.5 -142s-42.666 -88.167 -78.999 -124.5s-83.166 -65.833 -140.499 -88.5s-127 -34 -209 -34c-86.667 0 -165.667 16.5 -237 49.5s-136.333 80.833 -195 143.5l117 204c8 -2 14.167 -5 18.5 -9s8.16602 -8.66699 11.499 -14
s6.66602 -11.333 9.99902 -18s7.66602 -14 12.999 -22c14 -17.333 30.167 -34.333 48.5 -51s39.166 -31.334 62.499 -44.001s49 -22.834 77 -30.501s59 -11.5 93 -11.5c62.667 0 111.834 14.5 147.501 43.5s53.5 74.5 53.5 136.5c0 19.333 -4 37.833 -12 55.5
s-21.5 35 -40.5 52s-44.5 34.333 -76.5 52s-72.333 36.167 -121 55.5c-64 26 -118.667 53.333 -164 82s-82.5 59.334 -111.5 92.001s-50.167 67.334 -63.5 104.001s-20 75.667 -20 117c0 50 10.333 96.667 31 140s49.5 81.333 86.5 114s81 58.334 132 77.001
s107.167 28 168.5 28c77.333 0 150 -16.333 218 -49s125.667 -80 173 -142zM730.001 1468l-369 -129l-55 101l313 231z" />
    <glyph glyph-name="sacute" unicode="&#x15b;" 
d="M799 645c-5.33301 0 -9.50195 1.5 -12.502 4.5s-5.33301 6.66699 -7 11s-3.16699 9 -4.5 14s-3 9.5 -5 13.5c-12 14.667 -27 28.834 -45 42.501s-37.833 25.5 -59.5 35.5s-44.667 18 -69 24s-48.5 9 -72.5 9c-20.667 0 -40.334 -1.5 -59.001 -4.5
s-35.167 -7.83301 -49.5 -14.5s-25.666 -15.334 -33.999 -26.001s-12.5 -23.667 -12.5 -39c0 -17.333 4.5 -31.833 13.5 -43.5s22.5 -22.334 40.5 -32.001s40.667 -18.834 68 -27.501s59.666 -18 96.999 -28c114 -32 197.833 -73 251.5 -123s80.5 -107.333 80.5 -172
c0 -43.333 -9.66699 -84.333 -29 -123s-46.666 -72.834 -81.999 -102.501s-78.166 -53.167 -128.499 -70.5s-106.5 -26 -168.5 -26c-80.667 0 -155.167 12.833 -223.5 38.5s-132.5 66.834 -192.5 123.501l119 215c8 -1.33301 14 -6.16602 18 -14.499s9 -19.833 15 -34.5
c10.667 -17.333 26 -34.166 46 -50.499s42.333 -31.166 67 -44.499s50.5 -24 77.5 -32s52.833 -12 77.5 -12c54.667 0 97 7.83301 127 23.5s45 39.167 45 70.5c0 16 -3.33301 30 -10 42s-17.167 23.167 -31.5 33.5s-33.166 20 -56.499 29s-52 18.5 -86 28.5l-55.5 16
c-18.333 5.33301 -36.833 11.666 -55.5 18.999c-37.333 14 -70.666 29.833 -99.999 47.5s-54.166 37.5 -74.499 59.5s-35.833 46.833 -46.5 74.5s-16 58.5 -16 92.5s9.5 68 28.5 102s45.167 64.5 78.5 91.5s73.166 49 119.499 66s97.166 25.5 152.499 25.5
c72.667 0 140.167 -13 202.5 -39s119.5 -68.333 171.5 -127zM570.998 1462l166 -114l-215 -289l-114 67z" />
    <glyph glyph-name="Scedilla" unicode="&#x15e;" 
d="M780 946c-10 0.666992 -17.1572 2.66895 -21.4902 6.00195s-7.66602 7.66602 -9.99902 12.999s-4.16602 11.166 -5.49902 17.499s-4 12.5 -8 18.5c-22.667 34 -54.334 62.333 -95.001 85s-88.667 34 -144 34c-24 0 -45.833 -3.83301 -65.5 -11.5s-36.334 -18 -50.001 -31
s-24.167 -28 -31.5 -45s-11 -34.833 -11 -53.5c0 -22 3.83301 -42.833 11.5 -62.5s21.667 -39 42 -58s48 -38.167 83 -57.5s79.5 -40 133.5 -62c64.667 -26 118.5 -53.167 161.5 -81.5s77.333 -58.333 103 -90s43.667 -65.334 54 -101.001s15.5 -73.834 15.5 -114.501
c0 -42.667 -6.33301 -84.667 -19 -126s-32.834 -79.166 -60.501 -113.499s-63.334 -64 -107.001 -89s-96.167 -42.5 -157.5 -52.5l-4 -34c51.333 -5.33301 90.833 -21 118.5 -47s41.5 -59 41.5 -99c0 -21.333 -5.33301 -42.833 -16 -64.5s-26.834 -41 -48.501 -58
s-48.834 -30.833 -81.501 -41.5s-71.334 -16 -116.001 -16c-43.333 0 -87 7.16699 -131 21.5s-86.667 38.5 -128 72.5l76 129c20 -16.667 38.667 -30.5 56 -41.5s34.333 -19.667 51 -26s33.167 -10.666 49.5 -12.999s33.166 -3.5 50.499 -3.5c19.333 0 32.666 4 39.999 12
s11 15.667 11 23s-4.5 14.666 -13.5 21.999s-22.167 11 -39.5 11h-100l18 147c-148 15.333 -273 79 -375 191l117 204c8 -2 14.167 -5 18.5 -9s8.16602 -8.66699 11.499 -14s6.66602 -11.333 9.99902 -18s7.66602 -14 12.999 -22c14 -17.333 30.167 -34.333 48.5 -51
s39.166 -31.334 62.499 -44.001s49 -22.834 77 -30.501s59 -11.5 93 -11.5c62.667 0 111.834 14.5 147.501 43.5s53.5 74.5 53.5 136.5c0 19.333 -4 37.833 -12 55.5s-21.5 35 -40.5 52s-44.5 34.333 -76.5 52s-72.333 36.167 -121 55.5c-64 26 -118.667 53.333 -164 82
s-82.5 59.334 -111.5 92.001s-50.167 67.334 -63.5 104.001s-20 75.667 -20 117c0 50 10.333 96.667 31 140s49.5 81.333 86.5 114s81 58.334 132 77.001s107.167 28 168.5 28c77.333 0 150 -16.333 218 -49s125.667 -80 173 -142z" />
    <glyph glyph-name="scedilla" unicode="&#x15f;" 
d="M799 645c-5.33301 0 -9.49414 1.50195 -12.4941 4.50195s-5.33301 6.66699 -7 11s-3.16699 9 -4.5 14s-3 9.5 -5 13.5c-12 14.667 -27 28.834 -45 42.501s-37.833 25.5 -59.5 35.5s-44.667 18 -69 24s-48.5 9 -72.5 9c-20.667 0 -40.334 -1.5 -59.001 -4.5
s-35.167 -7.83301 -49.5 -14.5s-25.666 -15.334 -33.999 -26.001s-12.5 -23.667 -12.5 -39c0 -17.333 4.5 -31.833 13.5 -43.5s22.5 -22.334 40.5 -32.001s40.667 -18.834 68 -27.501s59.666 -18 96.999 -28c114 -32 197.833 -73 251.5 -123s80.5 -107.333 80.5 -172
c0 -38 -7.5 -74.333 -22.5 -109s-36.333 -66 -64 -94s-61.334 -51.833 -101.001 -71.5s-84.5 -33.5 -134.5 -41.5l-4 -36c51.333 -5.33301 90.833 -21 118.5 -47s41.5 -59 41.5 -99c0 -21.333 -5.33301 -42.833 -16 -64.5s-26.834 -41 -48.501 -58
s-48.834 -30.833 -81.501 -41.5s-71.334 -16 -116.001 -16c-43.333 0 -87 7.16699 -131 21.5s-86.667 38.5 -128 72.5l76 129c20 -16.667 38.667 -30.5 56 -41.5s34.333 -19.667 51 -26s33.167 -10.666 49.5 -12.999s33.166 -3.5 50.499 -3.5c19.333 0 32.666 4 39.999 12
s11 15.667 11 23s-4.5 14.666 -13.5 21.999s-22.167 11 -39.5 11h-100l20 153c-64 7.33301 -123.833 23.666 -179.5 48.999s-108.5 61.666 -158.5 108.999l119 215c8 -1.33301 14 -6.16602 18 -14.499s9 -19.833 15 -34.5c10.667 -17.333 26 -34.166 46 -50.499
s42.333 -31.166 67 -44.499s50.5 -24 77.5 -32s52.833 -12 77.5 -12c54.667 0 97 7.83301 127 23.5s45 39.167 45 70.5c0 16 -3.33301 30 -10 42s-17.167 23.167 -31.5 33.5s-33.166 20 -56.499 29s-52 18.5 -86 28.5l-55.5 16c-18.333 5.33301 -36.833 11.666 -55.5 18.999
c-37.333 14 -70.666 29.833 -99.999 47.5s-54.166 37.5 -74.499 59.5s-35.833 46.833 -46.5 74.5s-16 58.5 -16 92.5s9.5 68 28.5 102s45.167 64.5 78.5 91.5s73.166 49 119.499 66s97.166 25.5 152.499 25.5c72.667 0 140.167 -13 202.5 -39s119.5 -68.333 171.5 -127z" />
    <glyph glyph-name="Scaron" unicode="&#x160;" 
d="M780 946c-10 0.666992 -17.166 2.66992 -21.499 6.00293s-7.66602 7.66602 -9.99902 12.999s-4.16602 11.166 -5.49902 17.499s-4 12.5 -8 18.5c-22.667 34 -54.334 62.333 -95.001 85s-88.667 34 -144 34c-24 0 -45.833 -3.83301 -65.5 -11.5s-36.334 -18 -50.001 -31
s-24.167 -28 -31.5 -45s-11 -34.833 -11 -53.5c0 -22 3.83301 -42.833 11.5 -62.5s21.667 -39 42 -58s48 -38.167 83 -57.5s79.5 -40 133.5 -62c64.667 -26 118.5 -53.167 161.5 -81.5s77.333 -58.333 103 -90s43.667 -65.334 54 -101.001s15.5 -73.834 15.5 -114.501
c0 -48 -8.16699 -95.333 -24.5 -142s-42.666 -88.167 -78.999 -124.5s-83.166 -65.833 -140.499 -88.5s-127 -34 -209 -34c-86.667 0 -165.667 16.5 -237 49.5s-136.333 80.833 -195 143.5l117 204c8 -2 14.167 -5 18.5 -9s8.16602 -8.66699 11.499 -14
s6.66602 -11.333 9.99902 -18s7.66602 -14 12.999 -22c14 -17.333 30.167 -34.333 48.5 -51s39.166 -31.334 62.499 -44.001s49 -22.834 77 -30.501s59 -11.5 93 -11.5c62.667 0 111.834 14.5 147.501 43.5s53.5 74.5 53.5 136.5c0 19.333 -4 37.833 -12 55.5
s-21.5 35 -40.5 52s-44.5 34.333 -76.5 52s-72.333 36.167 -121 55.5c-64 26 -118.667 53.333 -164 82s-82.5 59.334 -111.5 92.001s-50.167 67.334 -63.5 104.001s-20 75.667 -20 117c0 50 10.333 96.667 31 140s49.5 81.333 86.5 114s81 58.334 132 77.001
s107.167 28 168.5 28c77.333 0 150 -16.333 218 -49s125.667 -80 173 -142zM837.001 1552l-272 -221h-63l-258 217l77 92l215 -135l232 129z" />
    <glyph glyph-name="scaron" unicode="&#x161;" 
d="M799 645c-5.33301 0 -9.50195 1.5 -12.502 4.5s-5.33301 6.66699 -7 11s-3.16699 9 -4.5 14s-3 9.5 -5 13.5c-12 14.667 -27 28.834 -45 42.501s-37.833 25.5 -59.5 35.5s-44.667 18 -69 24s-48.5 9 -72.5 9c-20.667 0 -40.334 -1.5 -59.001 -4.5
s-35.167 -7.83301 -49.5 -14.5s-25.666 -15.334 -33.999 -26.001s-12.5 -23.667 -12.5 -39c0 -17.333 4.5 -31.833 13.5 -43.5s22.5 -22.334 40.5 -32.001s40.667 -18.834 68 -27.501s59.666 -18 96.999 -28c114 -32 197.833 -73 251.5 -123s80.5 -107.333 80.5 -172
c0 -43.333 -9.66699 -84.333 -29 -123s-46.666 -72.834 -81.999 -102.501s-78.166 -53.167 -128.499 -70.5s-106.5 -26 -168.5 -26c-80.667 0 -155.167 12.833 -223.5 38.5s-132.5 66.834 -192.5 123.501l119 215c8 -1.33301 14 -6.16602 18 -14.499s9 -19.833 15 -34.5
c10.667 -17.333 26 -34.166 46 -50.499s42.333 -31.166 67 -44.499s50.5 -24 77.5 -32s52.833 -12 77.5 -12c54.667 0 97 7.83301 127 23.5s45 39.167 45 70.5c0 16 -3.33301 30 -10 42s-17.167 23.167 -31.5 33.5s-33.166 20 -56.499 29s-52 18.5 -86 28.5l-55.5 16
c-18.333 5.33301 -36.833 11.666 -55.5 18.999c-37.333 14 -70.666 29.833 -99.999 47.5s-54.166 37.5 -74.499 59.5s-35.833 46.833 -46.5 74.5s-16 58.5 -16 92.5s9.5 68 28.5 102s45.167 64.5 78.5 91.5s73.166 49 119.499 66s97.166 25.5 152.499 25.5
c72.667 0 140.167 -13 202.5 -39s119.5 -68.333 171.5 -127zM790.998 1348l-236 -297h-66l-235 299l119 88l155 -181l164 179z" />
    <glyph glyph-name="Tcedilla" unicode="&#x162;" 
d="M41 1276h940.005v-199h-360v-1077h-39l-9 -63c52 -5.33301 91.667 -21 119 -47s41 -59 41 -99c0 -21.333 -5.33301 -42.833 -16 -64.5s-26.834 -41 -48.501 -58s-48.834 -30.833 -81.501 -41.5s-71.334 -16 -116.001 -16c-43.333 0 -86.833 7.16699 -130.5 21.5
s-86.167 38.5 -127.5 72.5l76 129c20 -16.667 38.667 -30.5 56 -41.5s34.333 -19.667 51 -26s33.167 -10.666 49.5 -12.999s33.166 -3.5 50.499 -3.5c19.333 0 32.666 4 39.999 12s11 15.667 11 23s-4.5 14.666 -13.5 21.999s-22.167 11 -39.5 11h-101l25 182h-31v1077h-346
v199z" />
    <glyph glyph-name="tcedilla" unicode="&#x163;" 
d="M348 1180l254.007 42.998c0 -17.333 -2.66699 -31.666 -8 -42.999s-10 -24.333 -14 -39l-21 -185h289v-186h-297c-2 -49.333 -5.16699 -100.333 -9.5 -153s-6.5 -104.667 -6.5 -156c0 -52 1.16699 -96.667 3.5 -134s7.33301 -67.666 15 -90.999s18.667 -40.5 33 -51.5
s33.166 -16.5 56.499 -16.5c22.667 0 52.667 9.83301 90 29.5s79.666 47.5 126.999 83.5l72 -189c-40 -28.667 -79.5 -52.5 -118.5 -71.5s-78.167 -32.5 -117.5 -40.5l-4 -43c52 -5.33301 91.667 -21 119 -47s41 -59 41 -99c0 -21.333 -5.33301 -42.833 -16 -64.5
s-26.834 -41 -48.501 -58s-48.834 -30.833 -81.501 -41.5s-71.334 -16 -116.001 -16c-43.333 0 -86.833 7.16699 -130.5 21.5s-86.167 38.5 -127.5 72.5l76 129c20 -16.667 38.667 -30.5 56 -41.5s34.166 -19.667 50.499 -26s32.666 -10.666 48.999 -12.999
s33.166 -3.5 50.499 -3.5c19.333 0 32.833 4 40.5 12s11.5 15.667 11.5 23s-4.66699 14.666 -14 21.999s-22.666 11 -39.999 11h-100l20 155c-79.333 13.333 -137.333 51 -174 113s-55 152.667 -55 272c0 46 1.33301 102.833 4 170.5s7.66699 148.167 15 241.5h-207v186h219
z" />
    <glyph glyph-name="Tcaron" unicode="&#x164;" 
d="M41 1276h940v-199h-360v-1077h-234v1077h-346v199zM827 1550l-272 -221h-63l-258 217l77 92l215 -135l232 129z" />
    <glyph glyph-name="tcaron" unicode="&#x165;" 
d="M298 1180l254.002 42.998c0 -17.333 -2.66699 -31.666 -8 -42.999s-10 -24.333 -14 -39l-21 -185h289v-186h-297c-2 -49.333 -5.16699 -100.333 -9.5 -153s-6.5 -104.667 -6.5 -156c0 -52 1.16699 -96.667 3.5 -134s7.33301 -67.666 15 -90.999s18.667 -40.5 33 -51.5
s33.166 -16.5 56.499 -16.5c22.667 0 52.667 9.83301 90 29.5s79.666 47.5 126.999 83.5l72 -189c-56 -40 -110.833 -70.833 -164.5 -92.5s-106.834 -32.5 -159.501 -32.5c-53.333 0 -99.166 7.5 -137.499 22.5s-70 38.333 -95 70s-43.333 72.167 -55 121.5
s-17.5 108.333 -17.5 177c0 46 1.33301 102.833 4 170.5s7.66699 148.167 15 241.5h-207v186h219zM1024 1311c0 -91.333 -68.333 -205.333 -205 -342l-119 102c16.667 16 32.167 32 46.5 48s26.5 31 36.5 45s17.833 26.833 23.5 38.5s8.5 21.167 8.5 28.5
c0 2 -2.16699 5.33301 -6.5 10l-14.5 15c-14 12 -27 25 -39 39s-18 31.667 -18 53c0 18 3.33301 34.667 10 50s16.167 28.5 28.5 39.5s26.833 19.667 43.5 26s35 9.5 55 9.5c19.333 0 38 -4 56 -12s34 -19 48 -33s25.167 -31 33.5 -51s12.5 -42 12.5 -66z" />
    <glyph glyph-name="Uring" unicode="&#x16e;" 
d="M76 1276l243 0.00292969c2.66699 -2 4.16699 -3.66699 4.5 -5s0.5 -3 0.5 -5c0 -2.66699 -0.833008 -5.5 -2.5 -8.5s-3.5 -6.83301 -5.5 -11.5s-4.16699 -10.334 -6.5 -17.001s-3.83301 -15 -4.5 -25v-755c0 -44 3.33301 -83.833 10 -119.5s18 -65.834 34 -90.501
s37.333 -43.667 64 -57s59.667 -20 99 -20c40.667 0 74.5 6.83301 101.5 20.5s48.667 33.167 65 58.5s27.833 56 34.5 92s10 76.667 10 122v821h225v-819c0 -83.333 -10.333 -155.5 -31 -216.5s-50 -111.5 -88 -151.5s-84 -69.667 -138 -89s-114.333 -29 -181 -29
c-71.333 0 -134 11 -188 33s-99.333 53.667 -136 95s-64.167 91.666 -82.5 150.999s-27.5 126.333 -27.5 201v825zM518 1669c29.333 0 57 -5.33301 83 -16s48.833 -25.334 68.5 -44.001s35.167 -40.167 46.5 -64.5s17 -50.5 17 -78.5s-5.66699 -54.333 -17 -79
s-26.833 -46.334 -46.5 -65.001s-42.5 -33.334 -68.5 -44.001s-53.667 -16 -83 -16c-28.667 0 -55.834 5.33301 -81.501 16s-48 25.334 -67 44.001s-34.167 40.334 -45.5 65.001s-17 51 -17 79s5.66699 54.167 17 78.5s26.5 45.833 45.5 64.5s41.333 33.334 67 44.001
s52.834 16 81.501 16zM455 1468c0 -21.333 6.16699 -39.166 18.5 -53.499s27.833 -21.5 46.5 -21.5s34.334 7.16699 47.001 21.5s19 32.166 19 53.499s-6.33301 39.666 -19 54.999s-28.334 23 -47.001 23s-34.167 -7.66699 -46.5 -23s-18.5 -33.666 -18.5 -54.999z" />
    <glyph glyph-name="uring" unicode="&#x16f;" 
d="M903 956l-0.00292969 -841.002c0 -17.333 1.83301 -35.666 5.5 -54.999s8.16699 -39.333 13.5 -60h-222c-8 6 -13.333 15 -16 27s-4 22.667 -4 32v31c-14 -20.667 -31 -39 -51 -55s-41.667 -29.667 -65 -41s-47.166 -20 -71.499 -26s-47.833 -9 -70.5 -9
c-50 0 -94.667 7.33301 -134 22s-72.666 38 -99.999 70s-48.166 73.333 -62.499 124s-21.5 111.667 -21.5 183v598h226v-598c0 -73.333 12.5 -126.833 37.5 -160.5s58.167 -50.5 99.5 -50.5c28.667 0 55.5 5.83301 80.5 17.5s46.667 27.834 65 48.501s32.833 45.5 43.5 74.5
s16 60.833 16 95.5v573h231zM509.997 1456c29.333 0 57 -5.33301 83 -16s48.833 -25.334 68.5 -44.001s35.167 -40.167 46.5 -64.5s17 -50.5 17 -78.5s-5.66699 -54.333 -17 -79s-26.833 -46.334 -46.5 -65.001s-42.5 -33.334 -68.5 -44.001s-53.667 -16 -83 -16
c-28.667 0 -55.834 5.33301 -81.501 16s-48 25.334 -67 44.001s-34.167 40.334 -45.5 65.001s-17 51 -17 79s5.66699 54.167 17 78.5s26.5 45.833 45.5 64.5s41.333 33.334 67 44.001s52.834 16 81.501 16zM445.997 1255c0 -21.333 6.33301 -39.166 19 -53.499
s28.334 -21.5 47.001 -21.5s34.334 7.16699 47.001 21.5s19 32.166 19 53.499s-6.33301 39.666 -19 54.999s-28.334 23 -47.001 23s-34.334 -7.66699 -47.001 -23s-19 -33.666 -19 -54.999z" />
    <glyph glyph-name="Uhungarumlaut" unicode="&#x170;" 
d="M76 1276l243 0.00292969c2.66699 -2 4.16699 -3.66699 4.5 -5s0.5 -3 0.5 -5c0 -2.66699 -0.833008 -5.5 -2.5 -8.5s-3.5 -6.83301 -5.5 -11.5s-4.16699 -10.334 -6.5 -17.001s-3.83301 -15 -4.5 -25v-755c0 -44 3.33301 -83.833 10 -119.5s18 -65.834 34 -90.501
s37.333 -43.667 64 -57s59.667 -20 99 -20c40.667 0 74.5 6.83301 101.5 20.5s48.667 33.167 65 58.5s27.833 56 34.5 92s10 76.667 10 122v821h225v-819c0 -83.333 -10.333 -155.5 -31 -216.5s-50 -111.5 -88 -151.5s-84 -69.667 -138 -89s-114.333 -29 -181 -29
c-71.333 0 -134 11 -188 33s-99.333 53.667 -136 95s-64.167 91.666 -82.5 150.999s-27.5 126.333 -27.5 201v825zM838 1686l118 -170l-317 -209l-78 98zM471 1686l119 -170l-318 -209l-77 98z" />
    <glyph glyph-name="uhungarumlaut" unicode="&#x171;" 
d="M903 956l-0.00292969 -841.002c0 -17.333 1.83301 -35.666 5.5 -54.999s8.16699 -39.333 13.5 -60h-222c-8 6 -13.333 15 -16 27s-4 22.667 -4 32v31c-14 -20.667 -31 -39 -51 -55s-41.667 -29.667 -65 -41s-47.166 -20 -71.499 -26s-47.833 -9 -70.5 -9
c-50 0 -94.667 7.33301 -134 22s-72.666 38 -99.999 70s-48.166 73.333 -62.499 124s-21.5 111.667 -21.5 183v598h226v-598c0 -73.333 12.5 -126.833 37.5 -160.5s58.167 -50.5 99.5 -50.5c28.667 0 55.5 5.83301 80.5 17.5s46.667 27.834 65 48.501s32.833 45.5 43.5 74.5
s16 60.833 16 95.5v573h231zM411.997 1462l166 -114l-216 -289l-114 67zM728.997 1462l166 -114l-215 -289l-115 67z" />
    <glyph glyph-name="Ydieresis" unicode="&#x178;" 
d="M18 1276h256l263 -516l233 516h248l-365 -774v-502h-241v504zM319 1663c20.667 0 39.833 -3.83301 57.5 -11.5s33 -17.667 46 -30s23 -26.5 30 -42.5s10.5 -32.333 10.5 -49c0 -18 -3.83301 -35 -11.5 -51s-18 -29.833 -31 -41.5s-28.333 -21 -46 -28
s-36.167 -10.5 -55.5 -10.5s-37.666 3.5 -54.999 10.5s-32.333 16.333 -45 28s-22.667 25.5 -30 41.5s-11 33 -11 51s3.66699 35 11 51s17.333 30.167 30 42.5s27.667 22 45 29s35.666 10.5 54.999 10.5zM695.999 1663c21.333 0 40.667 -3.83301 58 -11.5
s32.166 -17.834 44.499 -30.501s21.833 -27 28.5 -43s10 -32 10 -48c0 -18 -3.66699 -35 -11 -51s-17.333 -29.833 -30 -41.5s-27.667 -21 -45 -28s-35.666 -10.5 -54.999 -10.5s-37.666 3.33301 -54.999 10s-32.333 15.834 -45 27.501s-22.667 25.5 -30 41.5
s-11 33.333 -11 52s3.66699 36 11 52s17.333 30 30 42s27.667 21.5 45 28.5s35.666 10.5 54.999 10.5z" />
    <glyph glyph-name="Zacute" unicode="&#x179;" 
d="M106 1276l838 0.00195312v-139l-567 -940h491c14.667 2 26.5 4.66699 35.5 8s17 6.66602 24 9.99902s14 6.16602 21 8.49902s15.833 3.5 26.5 3.5v-227h-891v139l578 938h-556v199zM730 1468l-369 -129l-55 101l313 231z" />
    <glyph glyph-name="zacute" unicode="&#x17a;" 
d="M127 936l764 -0.000976562v-143l-490 -600h435c10.667 0.666992 20 2.66699 28 6s15.833 6.83301 23.5 10.5s15.167 6.83398 22.5 9.50098s16 4 26 4v-223h-848v143l496 598h-457v195zM571 1462l166 -114l-215 -289l-114 67z" />
    <glyph glyph-name="Zdotaccent" unicode="&#x17b;" 
d="M106 1276l838 0.00195312v-139l-567 -940h491c14.667 2 26.5 4.66699 35.5 8s17 6.66602 24 9.99902s14 6.16602 21 8.49902s15.833 3.5 26.5 3.5v-227h-891v139l578 938h-556v199zM559 1654c19.333 0 37.833 -3.50098 55.5 -10.501s33.167 -16.5 46.5 -28.5
s24 -26 32 -42s12 -33.333 12 -52s-4 -36 -12 -52s-18.667 -30 -32 -42s-28.833 -21.5 -46.5 -28.5s-36.167 -10.5 -55.5 -10.5c-18.667 0 -36.667 3.5 -54 10.5s-32.5 16.5 -45.5 28.5s-23.5 26 -31.5 42s-12 33.333 -12 52c0 16 3.33301 32 10 48s16.167 30.333 28.5 43
s27.333 22.834 45 30.501s37.5 11.5 59.5 11.5z" />
    <glyph glyph-name="zdot" unicode="&#x17c;" 
d="M127 936l764 -0.000976562v-143l-490 -600h435c10.667 0.666992 20 2.66699 28 6s15.833 6.83301 23.5 10.5s15.167 6.83398 22.5 9.50098s16 4 26 4v-223h-848v143l496 598h-457v195zM418 1354c26 26 60 38.9961 102 38.9961c18.667 0 36.834 -3.66699 54.501 -11
s33 -17.166 46 -29.499s23.5 -26.666 31.5 -42.999s12 -33.833 12 -52.5c0 -18 -4 -35.167 -12 -51.5s-18.5 -30.666 -31.5 -42.999s-28.333 -22.166 -46 -29.499s-35.834 -11 -54.501 -11c-20 0 -38.667 3.66699 -56 11s-32.5 17.166 -45.5 29.499
s-23.167 26.666 -30.5 42.999s-11 33.5 -11 51.5c0 18.667 3.16699 35.834 9.5 51.501s16.833 30.834 31.5 45.501z" />
    <glyph glyph-name="florin" unicode="&#x192;" 
d="M926 1087c-22.667 0 -40.333 3.99902 -53 11.999s-21 21.333 -25 40c-5.33301 21.333 -16.833 37.5 -34.5 48.5s-38.834 16.5 -63.501 16.5c-15.333 0 -30.333 -3.33301 -45 -10s-27.667 -19 -39 -37s-21 -43.167 -29 -75.5s-13.333 -74.166 -16 -125.499l-9 -139h228
v-184h-244l-10 -139.5c-3.33301 -48.333 -7 -97.333 -11 -147s-8.16699 -98.834 -12.5 -147.501s-8.83301 -95.334 -13.5 -140.001c-7.33301 -71.333 -20.5 -133.166 -39.5 -185.499s-42.667 -95.666 -71 -129.999s-60.666 -59.833 -96.999 -76.5s-75.166 -25 -116.499 -25
c-38 0 -74.5 8.16699 -109.5 24.5s-68.167 41.5 -99.5 75.5l115 180c15.333 -1.33301 25.666 -5.16602 30.999 -11.499s10 -12.833 14 -19.5c7.33301 -14 16.5 -25.333 27.5 -34s23.167 -13 36.5 -13c23.333 0 42.5 20.333 57.5 61s25.167 95 30.5 163l45 565h-228v184h238
l14 164c12.667 141.333 48.834 244.666 108.501 309.999s138.167 98 235.5 98c101.333 0 189.666 -44.667 264.999 -134z" />
    <glyph glyph-name="dotlessj" unicode="&#x237;" 
d="M203 956h562.999v-909c0 -72 -10.167 -133.833 -30.5 -185.5s-48 -94 -83 -127s-76.167 -57.333 -123.5 -73s-98 -23.5 -152 -23.5c-64 0 -122.167 13.5 -174.5 40.5s-100.166 66.5 -143.499 118.5l142 187c6.66699 -2.66699 11.167 -5.83398 13.5 -9.50098
s4.16602 -8 5.49902 -13s3.33301 -11 6 -18s7.33398 -15.5 14.001 -25.5c6.66699 -9.33301 15 -19 25 -29s21.167 -19.333 33.5 -28s25.666 -15.667 39.999 -21s29.166 -8 44.499 -8c20.667 0 40.334 3.83301 59.001 11.5s34.834 19.834 48.501 36.501s24.5 38 32.5 64
s12 57.667 12 95v731h-332v186z" />
    <glyph glyph-name="afii57929" unicode="&#x2bc;" 
d="M668 1239c0 -91.333 -68.333 -205.333 -205 -342l-119 102c16.667 16 32.167 32 46.5 48s26.5 31 36.5 45s17.833 26.833 23.5 38.5s8.5 21.167 8.5 28.5c0 2 -2.16699 5.33301 -6.5 10l-14.5 15c-14 12 -27 25 -39 39s-18 31.667 -18 53c0 18 3.33301 34.667 10 50
s16.167 28.5 28.5 39.5s26.833 19.667 43.5 26s35 9.5 55 9.5c19.333 0 38 -4 56 -12s34 -19 48 -33s25.167 -31 33.5 -51s12.5 -42 12.5 -66z" />
    <glyph glyph-name="circumflex" unicode="&#x2c6;" 
d="M254 1130l235 297h66l236 -299l-119 -88l-156 181l-164 -179z" />
    <glyph glyph-name="caron" unicode="&#x2c7;" 
d="M791 1348l-236 -297h-66l-235 299l119 88l155 -181l164 179z" />
    <glyph glyph-name="uni02C9" unicode="&#x2c9;" 
d="M221 1313h574v-180h-574v180z" />
    <glyph glyph-name="uni02CB" unicode="&#x2cb;" 
d="M686 1126l-115 -67l-215 289l166 114z" />
    <glyph glyph-name="breve" unicode="&#x2d8;" 
d="M299 1382c28.667 -50 62.501 -86.667 101.501 -110s78.167 -35 117.5 -35c18 0 36.5 2.33301 55.5 7s38.167 12.667 57.5 24s38.333 26.333 57 45s37 41.667 55 69l99 -147c-22.667 -28 -47.334 -52.667 -74.001 -74s-54.167 -39.5 -82.5 -54.5s-57.333 -26.333 -87 -34
s-58.5 -11.5 -86.5 -11.5c-53.333 0 -108.5 13.167 -165.5 39.5s-114.5 69.833 -172.5 130.5z" />
    <glyph glyph-name="dotaccent" unicode="&#x2d9;" 
d="M418 1354c26 26 60 38.9961 102 38.9961c18.667 0 36.834 -3.66699 54.501 -11s33 -17.166 46 -29.499s23.5 -26.666 31.5 -42.999s12 -33.833 12 -52.5c0 -18 -4 -35.167 -12 -51.5s-18.5 -30.666 -31.5 -42.999s-28.333 -22.166 -46 -29.499s-35.834 -11 -54.501 -11
c-20 0 -38.667 3.66699 -56 11s-32.5 17.166 -45.5 29.499s-23.167 26.666 -30.5 42.999s-11 33.5 -11 51.5c0 18.667 3.16699 35.834 9.5 51.501s16.833 30.834 31.5 45.501z" />
    <glyph glyph-name="ring" unicode="&#x2da;" 
d="M510 1456c29.333 0 57 -5.33301 83 -16s48.833 -25.334 68.5 -44.001s35.167 -40.167 46.5 -64.5s17 -50.5 17 -78.5s-5.66699 -54.333 -17 -79s-26.833 -46.334 -46.5 -65.001s-42.5 -33.334 -68.5 -44.001s-53.667 -16 -83 -16c-28.667 0 -55.834 5.33301 -81.501 16
s-48 25.334 -67 44.001s-34.167 40.334 -45.5 65.001s-17 51 -17 79s5.66699 54.167 17 78.5s26.5 45.833 45.5 64.5s41.333 33.334 67 44.001s52.834 16 81.501 16zM446 1255c0 -21.333 6.33301 -39.166 19 -53.499s28.334 -21.5 47.001 -21.5s34.334 7.16699 47.001 21.5
s19 32.166 19 53.499s-6.33301 39.666 -19 54.999s-28.334 23 -47.001 23s-34.334 -7.66699 -47.001 -23s-19 -33.666 -19 -54.999z" />
    <glyph glyph-name="ogonek" unicode="&#x2db;" 
d="M905 0l-79.0039 -73.501c-20.667 -19 -37 -34.833 -49 -47.5s-20.333 -23 -25 -31s-7 -16 -7 -24c0 -9.33301 2.66699 -17.166 8 -23.499s13 -9.5 23 -9.5c8 0 15.667 1 23 3s15.833 6 25.5 12s20.834 14.167 33.501 24.5s28.334 23.833 47.001 40.5v-178
c-28 -21.333 -56 -37.666 -84 -48.999s-58 -17 -90 -17c-64.667 0 -112.167 14 -142.5 42s-45.5 64 -45.5 108c0 16 2 31.833 6 47.5s11.333 32.167 22 49.5s25.334 36.166 44.001 56.499s42.334 43.5 71.001 69.5h219z" />
    <glyph glyph-name="tilde" unicode="&#x2dc;" 
d="M176 1217c83.333 136 169.333 204.001 258 204.001c29.333 0 55.833 -6.83301 79.5 -20.5s45.167 -29.834 64.5 -48.501l16.5 -18c6.33301 -6.66699 12.833 -13 19.5 -19s13.834 -11 21.501 -15s15.5 -6 23.5 -6c10 0 19.667 3.33301 29 10s18.5 15.5 27.5 26.5
s18 23.5 27 37.5l27.5 43l113 -127l-60.5 -73c-18.333 -21.333 -35.833 -39.333 -52.5 -54s-33.334 -25.834 -50.001 -33.501s-34 -11.5 -52 -11.5c-26 0 -49.833 5.5 -71.5 16.5s-42.167 24.5 -61.5 40.5c-6 5.33301 -13 12.333 -21 21s-16.5 17.334 -25.5 26.001
s-18.5 16 -28.5 22s-20 9 -30 9c-20.667 0 -39 -11.167 -55 -33.5s-35.333 -55.5 -58 -99.5z" />
    <glyph glyph-name="hungarumlaut" unicode="&#x2dd;" 
d="M412 1462l166 -114l-216 -289l-114 67zM729 1462l166 -114l-215 -289l-115 67z" />
    <glyph glyph-name="quoteleft" unicode="&#x2018;" 
d="M336 920c0 54 19.998 114.499 59.998 181.499s100.667 142.167 182 225.5l114 -104c-19.333 -18 -37 -36.5 -53 -55.5s-30 -37.5 -42 -55.5s-21.333 -34.833 -28 -50.5s-10 -28.834 -10 -39.501c0 -7.33301 3 -14.166 9 -20.499s13.333 -13.166 22 -20.499
c17.333 -14.667 32.833 -30.167 46.5 -46.5s20.5 -36.5 20.5 -60.5c0 -20 -3.66699 -38.667 -11 -56s-17.666 -32.5 -30.999 -45.5s-29.5 -23.167 -48.5 -30.5s-39.833 -11 -62.5 -11c-21.333 0 -42.166 4.66699 -62.499 14s-38.333 22.333 -54 39s-28.167 36.5 -37.5 59.5
s-14 48.5 -14 76.5z" />
    <glyph glyph-name="quoteright" unicode="&#x2019;" 
d="M659 1139c0 -54.667 -19.832 -115.501 -59.499 -182.501s-100.167 -142.167 -181.5 -225.5l-115 105c18.667 18 36.167 36.5 52.5 55.5s30.5 37.333 42.5 55s21.333 34.334 28 50.001s10 28.834 10 39.501c0 7.33301 -3 14.166 -9 20.499s-13 13.166 -21 20.499
c-17.333 14.667 -33 30.334 -47 47.001s-21 36.667 -21 60c0 20 3.66699 38.667 11 56s17.666 32.5 30.999 45.5s29.5 23.167 48.5 30.5s40.167 11 63.5 11c21.333 0 42 -4.66699 62 -14s37.833 -22.333 53.5 -39s28.167 -36.5 37.5 -59.5s14 -48.167 14 -75.5z" />
    <glyph glyph-name="quotesinglbase" unicode="&#x201a;" 
d="M662 61c0 -54 -19.998 -114.498 -59.998 -181.498s-100.667 -142.167 -182 -225.5l-115 104c18.667 18 36.167 36.5 52.5 55.5s30.5 37.5 42.5 55.5s21.333 34.833 28 50.5s10 28.834 10 39.501c0 7.33301 -3 14.166 -9 20.499s-13 13.166 -21 20.499
c-17.333 14.667 -33 30.167 -47 46.5s-21 36.166 -21 59.499c0 20 3.66699 38.667 11 56s17.666 32.5 30.999 45.5s29.5 23.333 48.5 31s40.167 11.5 63.5 11.5c21.333 0 42.166 -4.66699 62.499 -14s38.333 -22.333 54 -39s28.167 -36.5 37.5 -59.5s14 -48.5 14 -76.5z" />
    <glyph glyph-name="quotedblleft" unicode="&#x201c;" 
d="M553 920c0 54 19.998 114.5 59.998 181.5s100.667 142.167 182 225.5l114 -104c-18.667 -18 -36.167 -36.5 -52.5 -55.5s-30.5 -37.5 -42.5 -55.5s-21.333 -34.833 -28 -50.5s-10 -28.834 -10 -39.501c0 -7.33301 3.16699 -14.166 9.5 -20.499l21.5 -20.5
c17.333 -14.667 32.833 -30.167 46.5 -46.5s20.5 -36.5 20.5 -60.5c0 -20 -3.66699 -38.667 -11 -56s-17.666 -32.5 -30.999 -45.5s-29.5 -23.167 -48.5 -30.5s-39.833 -11 -62.5 -11c-21.333 0 -42.166 4.66699 -62.499 14s-38.333 22.333 -54 39s-28.167 36.5 -37.5 59.5
s-14 48.5 -14 76.5zM130.998 920c0 54 19.999 114.5 59.999 181.5s100.667 142.167 182 225.5l114 -104c-18.667 -18 -36.167 -36.5 -52.5 -55.5s-30.5 -37.5 -42.5 -55.5s-21.333 -34.833 -28 -50.5s-10 -28.834 -10 -39.501c0 -7.33301 3.16699 -14.166 9.5 -20.499
l21.5 -20.5c17.333 -14.667 33 -30.167 47 -46.5s21 -36.5 21 -60.5c0 -20 -3.66699 -38.667 -11 -56s-17.833 -32.5 -31.5 -45.5s-30 -23.167 -49 -30.5s-39.833 -11 -62.5 -11c-21.333 0 -42.166 4.66699 -62.499 14s-38.333 22.333 -54 39s-28.167 36.5 -37.5 59.5
s-14 48.5 -14 76.5z" />
    <glyph glyph-name="quotedblright" unicode="&#x201d;" 
d="M457 1139c0 -54.667 -20 -115.501 -60 -182.501s-100.667 -142.167 -182 -225.5l-115 105c18.667 18 36.167 36.5 52.5 55.5s30.5 37.333 42.5 55s21.333 34.334 28 50.001s10 28.834 10 39.501c0 7.33301 -3 14.166 -9 20.499s-13 13.166 -21 20.499
c-17.333 14.667 -33 30.334 -47 47.001s-21 36.667 -21 60c0 20 3.66699 38.667 11 56s17.833 32.5 31.5 45.5s29.834 23.167 48.501 30.5s39.667 11 63 11c21.333 0 42.166 -4.66699 62.499 -14s38.333 -22.333 54 -39s28.167 -36.5 37.5 -59.5s14 -48.167 14 -75.5z
M879 1139c0 -54.667 -19.998 -115.501 -59.998 -182.501s-100.667 -142.167 -182 -225.5l-115 105c18.667 18 36.167 36.5 52.5 55.5s30.5 37.333 42.5 55s21.333 34.334 28 50.001s10 28.834 10 39.501c0 7.33301 -3 14.166 -9 20.499s-13 13.166 -21 20.499
c-17.333 14.667 -33 30.334 -47 47.001s-21 36.667 -21 60c0 20 3.66699 38.667 11 56s17.666 32.5 30.999 45.5s29.5 23.167 48.5 30.5s40.167 11 63.5 11c21.333 0 42.166 -4.66699 62.499 -14s38.333 -22.333 54 -39s28.167 -36.5 37.5 -59.5s14 -48.167 14 -75.5z" />
    <glyph glyph-name="quotedblbase" unicode="&#x201e;" 
d="M457 61c0 -54 -20 -114.498 -60 -181.498s-100.667 -142.167 -182 -225.5l-115 104c18.667 18 36.167 36.5 52.5 55.5s30.5 37.5 42.5 55.5s21.333 34.833 28 50.5s10 28.834 10 39.501c0 7.33301 -3 14.166 -9 20.499s-13 13.166 -21 20.499
c-17.333 14.667 -33 30.167 -47 46.5s-21 36.166 -21 59.499c0 20 3.66699 38.667 11 56s17.833 32.5 31.5 45.5s29.834 23.333 48.501 31s39.667 11.5 63 11.5c21.333 0 42.166 -4.66699 62.499 -14s38.333 -22.333 54 -39s28.167 -36.5 37.5 -59.5s14 -48.5 14 -76.5z
M879 61.002c0 -54 -19.998 -114.498 -59.998 -181.498s-100.667 -142.167 -182 -225.5l-115 104c18.667 18 36.167 36.5 52.5 55.5s30.5 37.5 42.5 55.5s21.333 34.833 28 50.5s10 28.834 10 39.501c0 7.33301 -3 14.166 -9 20.499s-13 13.166 -21 20.499
c-17.333 14.667 -33 30.167 -47 46.5s-21 36.166 -21 59.499c0 20 3.66699 38.667 11 56s17.666 32.5 30.999 45.5s29.5 23.333 48.5 31s40.167 11.5 63.5 11.5c21.333 0 42.166 -4.66699 62.499 -14s38.333 -22.333 54 -39s28.167 -36.5 37.5 -59.5s14 -48.5 14 -76.5z" />
    <glyph glyph-name="dagger" unicode="&#x2020;" 
d="M397 1335h221v-364h314v-189h-314v-1089h-221v1089h-315v189h315v364z" />
    <glyph glyph-name="daggerdbl" unicode="&#x2021;" 
d="M397 1333h221v-364h314v-189h-314v-497h314v-191h-314v-399h-221v399h-315v191h315v497h-315v189h315v364z" />
    <glyph glyph-name="bullet" unicode="&#x2022;" 
d="M313 616c0 26.667 5.5 51.834 16.5 75.501s25.833 44.334 44.5 62.001s40.5 31.667 65.5 42s51.833 15.5 80.5 15.5s55.667 -5.16699 81 -15.5s47.333 -24.333 66 -42s33.334 -38.334 44.001 -62.001s16 -48.834 16 -75.501s-5.33301 -51.667 -16 -75
s-25.334 -43.833 -44.001 -61.5s-40.667 -31.667 -66 -42s-52.333 -15.5 -81 -15.5s-55.5 5.16699 -80.5 15.5s-46.833 24.333 -65.5 42s-33.5 38.167 -44.5 61.5s-16.5 48.333 -16.5 75z" />
    <glyph glyph-name="ellipsis" unicode="&#x2026;" 
d="M350 111c0 19.333 3.5 37.5 10.5 54.5s17 31.667 30 44s28.167 22.166 45.5 29.499s36.666 11 57.999 11c20.667 0 40 -3.66699 58 -11s33.333 -17.166 46 -29.499s22.667 -27 30 -44s11 -35.167 11 -54.5s-3.66699 -37.5 -11 -54.5s-17.333 -31.833 -30 -44.5
s-28 -22.667 -46 -30s-37.333 -11 -58 -11c-21.333 0 -40.666 3.66699 -57.999 11s-32.5 17.333 -45.5 30s-23 27.5 -30 44.5s-10.5 35.167 -10.5 54.5zM688 111c0 19.333 3.5 37.5 10.5 54.5s16.833 31.667 29.5 44s27.834 22.166 45.501 29.499s36.834 11 57.501 11
s40 -3.66699 58 -11s33.5 -17.166 46.5 -29.499s23.167 -27 30.5 -44s11 -35.167 11 -54.5s-3.66699 -37.5 -11 -54.5s-17.5 -31.833 -30.5 -44.5s-28.5 -22.667 -46.5 -30s-37.333 -11 -58 -11s-39.834 3.66699 -57.501 11s-32.834 17.333 -45.501 30
s-22.5 27.5 -29.5 44.5s-10.5 35.167 -10.5 54.5zM10 111c0 19.333 3.5 37.5 10.5 54.5s17 31.667 30 44s28.167 22.166 45.5 29.499s36.666 11 57.999 11c20.667 0 40 -3.66699 58 -11s33.333 -17.166 46 -29.499s22.667 -27 30 -44s11 -35.167 11 -54.5
s-3.66699 -37.5 -11 -54.5s-17.333 -31.833 -30 -44.5s-28 -22.667 -46 -30s-37.333 -11 -58 -11c-21.333 0 -40.666 3.66699 -57.999 11s-32.5 17.333 -45.5 30s-23 27.5 -30 44.5s-10.5 35.167 -10.5 54.5z" />
    <glyph glyph-name="guilsinglleft" unicode="&#x2039;" 
d="M250 526l336 326l135 -139l-234 -224l244 -262l-139 -139l-342 369v69z" />
    <glyph glyph-name="guilsinglright" unicode="&#x203a;" 
d="M737 457l-342 -369l-139 139l244 262l-234 224l135 139l336 -326v-69z" />
    <glyph glyph-name="fraction" unicode="&#x2044;" 
d="M123 -8l635 1382l170 -96l-637 -1378z" />
    <glyph glyph-name="uni2074" unicode="&#x2074;" 
d="M584 1343h147v-460h117v-164h-117v-182h-203v184h-342v115zM541 1034l-129 -162h129v162z" />
    <glyph glyph-name="Euro" unicode="&#x20ac;" 
d="M905 954l-37.501 50.999c-13 18 -28.5 34.667 -46.5 50s-40.167 28 -66.5 38s-58.833 15 -97.5 15c-59.333 0 -112.666 -19.833 -159.999 -59.5s-81.333 -98.5 -102 -176.5h482l-70 -186h-442c-1.33301 -11.333 -2.16602 -22.333 -2.49902 -33s-0.5 -20 -0.5 -28v-31h416
l-71 -184h-324c19.333 -81.333 52.333 -143.666 99 -186.999s104.334 -65 173.001 -65c41.333 0 79.333 9.66699 114 29s70.667 46.333 108 81l94 -168c-48.667 -42 -98.834 -74.333 -150.501 -97s-109.5 -34 -173.5 -34c-62 0 -119.5 10 -172.5 30s-100.333 49 -142 87
s-76.667 84.333 -105 139s-48.833 116.334 -61.5 185.001h-127l43 184l65 4v45c0 7.33301 0.166992 14.333 0.5 21s1.16602 14 2.49902 22h-109l43 186h96c16.667 75.333 41.5 139.5 74.5 192.5s71 96.167 114 129.5s90 57.666 141 72.999s103.167 23 156.5 23
c126.667 0 231.667 -45.667 315 -137z" />
    <glyph glyph-name="trademark" unicode="&#x2122;" 
d="M489 1303v-132h-151v-516h-148v516h-153v132h452zM635 1303l117 -265l125 265h112v-648h-145v353l-68 -142h-61l-58 135v-346h-141v648h119z" />
    </font>
</defs>
</svg>
